<?xml version="1.0" standalone="no"?>
<!DOCTYPE svg PUBLIC "-//W3C//DTD SVG 1.1//EN" "http://www.w3.org/Graphics/SVG/1.1/DTD/svg11.dtd">
<svg xmlns="http://www.w3.org/2000/svg">
<defs >
<font id="SourceSansPro" horiz-adv-x="491" ><font-face
    font-family="Source Sans Pro Black"
    units-per-em="1000"
    panose-1="2 11 8 3 3 4 3 2 2 4"
    ascent="984"
    descent="-273"
    alphabetic="0" />
<glyph unicode=" " glyph-name="space" horiz-adv-x="210" />
<glyph unicode="!" glyph-name="exclam" horiz-adv-x="360" d="M100 522L94 670H266L260 522L236 244H124L100 522ZM80 92Q80 136 108 166T180 196Q224 196 252 166T280 92Q280 48 252 18T180 -12Q136 -12 108 18T80 92Z" />
<glyph unicode="&quot;" glyph-name="quotedbl" horiz-adv-x="580" d="M80 536L74 684H246L240 536L206 324H114L80 536ZM340 536L334 684H506L500 536L466 324H374L340 536Z" />
<glyph unicode="#" glyph-name="numbersign" horiz-adv-x="540" d="M106 180H34V288H118L130 384H54V492H144L164 650H260L242 492H334L354 650H450L432 492H510V384H418L406 288H490V180H394L372 0H274L296 180H204L182 0H84L106 180ZM308 288L320 384H228L216 288H308Z" />
<glyph unicode="$" glyph-name="dollar" horiz-adv-x="540" d="M390 460Q363 484 339 496T286 508Q254 508 238 497T222 456Q222 437 241 423T289 395T351 365T413 326T461 271T480 194Q480 121 442 68T324 -4V-110H212V-10Q169 -5 121 13T34 66L108 182Q149 152
181 139T246 126Q284 126 300 139T316 182Q316 202 297 217T249 248T187 279T125 319T77 373T58 448Q58 524 98 574T212 640V744H324V642Q372 634 408 612T475 558L390 460Z" />
<glyph unicode="%" glyph-name="percent" horiz-adv-x="870" d="M190 248Q154 248 123 262T70 303T35 368T22 456Q22 505 34 543T69 607T123 648T190 662Q226 662 256 648T309 608T345 543T358 456Q358 407 345 369T310 303T257 262T190 248ZM190 342Q210 342
225 366T240 456Q240 489 236 510T225 545T209 563T190 568Q180 568 171 563T155 545T144 511T140 456Q140 390 155 366T190 342ZM214 -12L562 662H658L310 -12H214ZM680 -12Q644 -12 613 2T560 43T525 108T512 196Q512 245 524 283T559 347T613 388T680 402Q716
402 746 388T799 348T835 283T848 196Q848 147 835 109T800 43T747 2T680 -12ZM680 82Q700 82 715 106T730 196Q730 229 726 250T715 285T699 303T680 308Q670 308 661 303T645 285T634 251T630 196Q630 130 645 106T680 82Z" />
<glyph unicode="&amp;" glyph-name="ampersand" horiz-adv-x="690" d="M184 186Q184 156 206 137T268 118Q297 118 332 134Q264 188 214 247Q200 233 192 218T184 186ZM239 486Q239 455 257 421Q288 439 308 459T328 508Q328 550 290 550Q270 550 255 534T239
486ZM630 -12Q587 -4 544 12T456 51Q413 22 361 5T246 -12Q189 -12 147 3T78 45T36 105T22 176Q22 210 31 237T56 286T93 325T137 357Q118 391 108 424T98 486Q98 521 111 553T148 609T207 647T286 662Q364 662 411 621T458 508Q458 476 447 450T418 402T377 362T328
327Q353 301 382 277T442 230Q465 260 483 296T512 374H668Q651 317 625 264T562 161Q621 132 670 126L630 -12Z" />
<glyph unicode="&apos;" glyph-name="quotesingle" horiz-adv-x="320" d="M80 536L74 684H246L240 536L206 324H114L80 536Z" />
<glyph unicode="(" glyph-name="parenleft" horiz-adv-x="360" d="M200 -180Q137 -77 103 34T68 278Q68 410 102 521T200 736L308 692Q254 594 230 488T206 278Q206 174 230 68T308 -136L200 -180V-180Z" />
<glyph unicode=")" glyph-name="parenright" horiz-adv-x="360" d="M52 -136Q106 -38 130 68T154 278Q154 382 130 488T52 692L160 736Q223 632 257 521T292 278Q292 146 258 35T160 -180L52 -136V-136Z" />
<glyph unicode="*" glyph-name="asterisk" horiz-adv-x="472" d="M82 372L142 479L30 531L57 614L178 590L192 712H280L294 589L415 614L442 531L329 479L390 372L320 321L236 412L152 321L82 372Z" />
<glyph unicode="+" glyph-name="plus" horiz-adv-x="540" d="M208 270H34V390H208V570H332V390H506V270H332V90H208V270Z" />
<glyph unicode="," glyph-name="comma" horiz-adv-x="320" d="M46 -114Q106 -94 136 -62T167 8H160Q121 8 91 32T60 102Q60 144 90 170T164 196Q220 196 249 155T278 40Q278 -49 228 -113T80 -204L46 -114Z" />
<glyph unicode="-" glyph-name="hyphen" horiz-adv-x="340" d="M44 314H296V194H44V314Z" />
<glyph unicode="." glyph-name="period" horiz-adv-x="320" d="M60 92Q60 136 88 166T160 196Q204 196 232 166T260 92Q260 48 232 18T160 -12Q116 -12 88 18T60 92Z" />
<glyph unicode="/" glyph-name="slash" horiz-adv-x="334" d="M190 710H300L124 -160H14L190 710Z" />
<glyph unicode="0" glyph-name="zero" horiz-adv-x="540" d="M270 -12Q217 -12 174 9T100 73T51 177T34 320Q34 401 51 462T99 564T174 625T270 646Q322 646 365 626T440 564T489 462T506 320Q506 239 489 177T441 73T366 10T270 -12ZM270 120Q285 120 298 127T322
157T338 218T344 320Q344 383 338 421T322 480T299 507T270 514Q255 514 242 508T218 480T202 421T196 320Q196 257 202 218T218 157T241 128T270 120Z" />
<glyph unicode="1" glyph-name="one" horiz-adv-x="540" d="M66 138H202V466H82V572Q136 583 174 597T248 634H374V138H488V0H66V138Z" />
<glyph unicode="2" glyph-name="two" horiz-adv-x="540" d="M36 98Q92 150 140 196T225 282T281 359T302 428Q302 471 281 491T224 512Q192 512 168 494T120 452L28 544Q53 570 77 589T127 621T183 640T248 646Q296 646 336 631T405 589T450 524T466 438Q466 400
450 361T407 282T349 206T284 136Q308 139 338 141T390 144H496V0H36V98Z" />
<glyph unicode="3" glyph-name="three" horiz-adv-x="540" d="M98 186Q127 159 160 143T228 126Q270 126 295 141T320 186Q320 204 314 218T291 242T243 257T162 262V382Q202 382 228 387T271 401T293 424T300 454Q300 512 234 512Q202 512 177 499T122 460L36
564Q83 603 133 624T242 646Q347 646 409 600T472 467Q472 375 370 330V326Q424 309 458 272T492 174Q492 129 472 95T419 36T340 0T246 -12Q168 -12 112 12T20 78L98 186Z" />
<glyph unicode="4" glyph-name="four" horiz-adv-x="540" d="M290 272V344Q290 360 290 379T292 419T294 458T296 494H292Q280 465 267 437T240 380L182 272H290ZM518 142H450V0H290V142H20V262L236 634H450V272H518V142Z" />
<glyph unicode="5" glyph-name="five" horiz-adv-x="540" d="M98 186Q127 160 159 143T226 126Q271 126 295 146T320 208Q320 249 296 269T234 290Q221 290 211 289T192 284T171 275T146 260L72 308L88 634H464V490H236L228 398Q245 404 258 406T288 408Q329 408
366 396T431 360T475 299T492 212Q492 159 473 117T420 47T344 3T252 -12Q174 -12 118 13T22 78L98 186Z" />
<glyph unicode="6" glyph-name="six" horiz-adv-x="540" d="M282 116Q309 116 329 135T350 204Q350 227 344 241T329 264T306 276T280 280Q258 280 237 268T199 226Q204 193 213 172T234 138T257 121T282 116ZM408 464Q393 481 366 494T312 508Q289 508 269 500T233
471T207 418T195 337Q207 352 222 364T253 384T285 396T314 400Q354 400 389 389T450 353T491 292T506 204Q506 153 489 113T441 45T371 3T286 -12Q240 -12 196 5T116 61T60 159T38 306Q38 392 60 456T118 562T201 625T300 646Q368 646 417 622T498 566L408 464Z"
/>
<glyph unicode="7" glyph-name="seven" horiz-adv-x="540" d="M152 0Q156 75 166 138T194 259T242 373T316 490H44V634H498V528Q443 464 411 408T361 293T336 163T324 0H152V0Z" />
<glyph unicode="8" glyph-name="eight" horiz-adv-x="540" d="M189 182Q189 144 214 125T272 106Q301 106 321 121T341 172Q341 189 333 202T310 225T272 246T222 268Q208 251 199 229T189 182ZM306 378Q334 418 334 458Q334 491 317 509T270 528Q247 528 230
514T212 466Q212 434 236 415T306 378ZM42 162Q42 218 71 253T146 312V316Q108 345 85 380T62 466Q62 508 77 541T121 598T188 633T274 646Q318 646 354 634T417 599T457 543T472 470Q472 426 449 393T391 337V333Q438 308 469 269T500 166Q500 128 484 96T437
39T363 2T268 -12Q220 -12 179 0T107 36T59 91T42 162Z" />
<glyph unicode="9" glyph-name="nine" horiz-adv-x="540" d="M258 354Q280 354 301 366T339 408Q334 441 325 462T304 496T281 513T256 518Q229 518 209 499T188 430Q188 407 194 393T209 370T231 358T258 354ZM130 170Q145 153 172 140T226 126Q250 126 270 134T305
163T331 216T343 297Q331 282 316 270T285 250T253 238T224 234Q183 234 148 245T88 281T47 342T32 430Q32 481 49 521T97 589T167 631T252 646Q298 646 342 629T422 573T478 475T500 328Q500 242 478 178T420 72T337 9T238 -12Q170 -12 121 12T40 68L130 170Z"
/>
<glyph unicode=":" glyph-name="colon" horiz-adv-x="320" d="M60 402Q60 446 88 476T160 506Q204 506 232 476T260 402Q260 358 232 328T160 298Q116 298 88 328T60 402ZM60 92Q60 136 88 166T160 196Q204 196 232 166T260 92Q260 48 232 18T160 -12Q116 -12
88 18T60 92Z" />
<glyph unicode=";" glyph-name="semicolon" horiz-adv-x="320" d="M60 402Q60 446 88 476T160 506Q204 506 232 476T260 402Q260 358 232 328T160 298Q116 298 88 328T60 402ZM46 -114Q106 -94 136 -62T167 8H160Q121 8 91 32T60 102Q60 144 90 170T164 196Q220
196 249 155T278 40Q278 -49 228 -113T80 -204L46 -114Z" />
<glyph unicode="&lt;" glyph-name="less" horiz-adv-x="540" d="M34 390L506 570V430L344 380L208 334V330L344 284L506 234V94L34 274V390Z" />
<glyph unicode="=" glyph-name="equal" horiz-adv-x="540" d="M34 510H506V390H34V510ZM34 527H506V407H34V527Z" />
<glyph unicode="&gt;" glyph-name="greater" horiz-adv-x="540" d="M506 274L34 94V234L196 284L332 330V334L196 380L34 430V570L506 390V274Z" />
<glyph unicode="?" glyph-name="question" horiz-adv-x="478" d="M152 244Q147 276 154 303T174 352T205 394T238 430T263 462T274 494Q274 521 258 532T218 544Q192 544 174 532T136 502L42 588Q77 630 125 656T230 682Q273 682 311 672T377 641T422 587T438
506Q438 476 427 453T401 409T367 371T333 334T309 293T302 244H152ZM126 92Q126 136 154 166T226 196Q270 196 298 166T326 92Q326 48 298 18T226 -12Q182 -12 154 18T126 92Z" />
<glyph unicode="@" glyph-name="at" horiz-adv-x="924" d="M48 206Q48 312 85 399T185 548T332 644T512 678Q595 678 662 651T777 576T850 460T876 312Q876 242 855 190T799 104T722 52T638 34Q593 34 560 54T518 110H516Q506 95 492 83T462 62T428 49T396 44Q334
44 297 86T260 198Q260 246 276 291T320 371T385 427T466 448Q490 448 509 437T540 398H542L558 440H662L614 212Q596 138 656 138Q678 138 699 150T735 184T760 238T770 308Q770 359 756 407T710 492T626 553T498 576Q435 576 375 550T267 476T191 361T162 210Q162
136 186 82T250 -7T343 -59T452 -76Q488 -76 529 -66T600 -40L636 -132Q589 -156 541 -167T438 -178Q362 -178 292 -155T167 -85T81 34T48 206ZM388 208Q388 150 434 150Q448 150 460 158T490 190L512 316Q507 327 497 333T472 340Q452 340 437 327T411 295T394
252T388 208Z" />
<glyph unicode="A" glyph-name="A" horiz-adv-x="584" d="M349 271L338 316Q326 363 314 418T290 522H286Q275 472 264 418T240 316L229 271H349ZM380 138H198L166 0H-10L188 650H396L594 0H412L380 138Z" />
<glyph unicode="B" glyph-name="B" horiz-adv-x="612" d="M72 650H306Q357 650 402 643T480 617T532 568T552 488Q552 467 546 446T527 405T493 370T444 348V344Q513 330 547 294T582 192Q582 142 562 106T507 46T425 11T326 0H72V650ZM302 394Q344 394 364 413T384
462Q384 492 364 505T302 518H244V394H302ZM314 132Q414 132 414 206Q414 242 390 258T314 274H244V132H314Z" />
<glyph unicode="C" glyph-name="C" horiz-adv-x="586" d="M44 320Q44 402 70 465T140 572T241 639T362 662Q424 662 474 637T560 576L466 470Q442 491 419 502T364 514Q335 514 309 501T263 464T232 405T220 326Q220 234 258 185T360 136Q398 136 425 150T474
188L568 84Q526 36 472 12T358 -12Q294 -12 237 8T137 70T69 174T44 320Z" />
<glyph unicode="D" glyph-name="D" horiz-adv-x="642" d="M72 650H264Q338 650 399 632T505 575T573 475T598 328Q598 242 574 180T507 78T404 19T274 0H72V650ZM254 138Q289 138 320 146T373 176T409 234T422 328Q422 385 409 421T374 477T320 504T254 512H244V138H254Z" />
<glyph unicode="E" glyph-name="E" horiz-adv-x="556" d="M72 650H492V506H244V404H456V260H244V144H502V0H72V650Z" />
<glyph unicode="F" glyph-name="F" horiz-adv-x="536" d="M72 650H496V506H244V382H460V238H244V0H72V650Z" />
<glyph unicode="G" glyph-name="G" horiz-adv-x="646" d="M44 320Q44 402 70 465T141 572T245 639T372 662Q441 662 493 637T580 576L486 470Q462 491 438 502T374 514Q341 514 313 501T264 464T232 405T220 326Q220 234 261 185T390 136Q404 136 417 139T440
148V238H344V378H592V68Q556 35 497 12T368 -12Q301 -12 242 8T139 70T70 174T44 320Z" />
<glyph unicode="H" glyph-name="H" horiz-adv-x="682" d="M72 650H244V408H438V650H610V0H438V258H244V0H72V650Z" />
<glyph unicode="I" glyph-name="I" horiz-adv-x="316" d="M72 650H244V0H72V650Z" />
<glyph unicode="J" glyph-name="J" horiz-adv-x="520" d="M126 198Q143 166 165 151T208 136Q225 136 238 140T261 157T275 189T280 240V650H452V226Q452 177 439 134T398 59T330 7T232 -12Q152 -12 99 18T10 111L126 198Z" />
<glyph unicode="K" glyph-name="K" horiz-adv-x="628" d="M72 650H244V408H248L412 650H600L406 386L638 0H450L306 250L244 162V0H72V650Z" />
<glyph unicode="L" glyph-name="L" horiz-adv-x="530" d="M72 650H244V144H490V0H72V650Z" />
<glyph unicode="M" glyph-name="M" horiz-adv-x="776" d="M72 650H250L352 380L388 274H392L428 380L526 650H704V0H544V192Q544 217 546 247T552 308T559 370T566 424H562L508 272L418 53H354L264 272L212 424H208Q211 400 215 370T222 309T227 247T230 192V0H72V650Z" />
<glyph unicode="N" glyph-name="N" horiz-adv-x="672" d="M72 650H248L392 360L454 214H458Q455 240 451 271T444 334T439 399T436 462V650H600V0H424L280 291L218 436H214Q220 380 228 314T236 188V0H72V650Z" />
<glyph unicode="O" glyph-name="O" horiz-adv-x="692" d="M346 -12Q278 -12 223 11T128 77T66 184T44 328Q44 408 66 470T127 575T222 640T346 662Q413 662 469 640T564 575T626 470T648 328Q648 248 626 185T565 78T469 11T346 -12ZM346 136Q405 136 438 187T472
328Q472 417 439 465T346 514Q287 514 254 466T220 328Q220 239 253 188T346 136Z" />
<glyph unicode="P" glyph-name="P" horiz-adv-x="618" d="M72 650H324Q376 650 423 640T506 604T563 537T584 434Q584 374 563 331T505 261T422 220T324 206H244V0H72V650ZM316 342Q367 342 391 366T416 434Q416 478 390 496T316 514H244V342H316Z" />
<glyph unicode="Q" glyph-name="Q" horiz-adv-x="692" d="M346 514Q287 514 254 466T220 328Q220 231 253 180T346 128Q405 128 438 179T472 328Q472 417 439 465T346 514ZM690 -160Q670 -171 639 -177T566 -184Q511 -184 465 -171T381 -134T315 -77T268 -3Q217
9 176 36T105 106T60 204T44 328Q44 408 66 470T127 575T222 640T346 662Q413 662 469 640T564 575T626 470T648 328Q648 200 595 117T449 4Q472 -27 510 -37T586 -48Q607 -48 626 -45T660 -36L690 -160Z" />
<glyph unicode="R" glyph-name="R" horiz-adv-x="630" d="M244 354H306Q410 354 410 440Q410 482 384 498T306 514H244V354ZM422 0L310 218H244V0H72V650H318Q370 650 417 640T500 606T557 542T578 440Q578 370 550 324T473 252L614 0H422Z" />
<glyph unicode="S" glyph-name="S" horiz-adv-x="564" d="M130 199Q165 171 205 154T282 136Q321 136 338 148T356 182Q356 194 350 202T333 217T305 230T268 245L187 279Q161 289 137 305T95 344T67 396T56 460Q56 502 74 538T124 602T200 646T298 662Q354 662
411 641T514 575L428 467Q395 490 365 502T298 514Q266 514 248 503T230 470Q230 447 255 435T326 405L405 374Q466 350 499 307T532 196Q532 155 515 117T466 51T386 5T278 -12Q216 -12 151 10T32 81L130 199Z" />
<glyph unicode="T" glyph-name="T" horiz-adv-x="564" d="M196 506H24V650H540V506H368V0H196V506Z" />
<glyph unicode="U" glyph-name="U" horiz-adv-x="672" d="M68 650H240V294Q240 207 263 172T338 136Q389 136 413 171T438 294V650H604V314Q604 147 539 68T338 -12Q201 -12 135 67T68 314V650Z" />
<glyph unicode="V" glyph-name="V" horiz-adv-x="572" d="M-10 650H172L240 366Q254 314 264 264T288 160H292Q306 213 316 263T340 366L406 650H582L390 0H182L-10 650Z" />
<glyph unicode="W" glyph-name="W" horiz-adv-x="824" d="M10 650H186L222 366Q227 315 233 264T244 162H248Q257 213 266 264T284 366L346 650H490L552 366Q561 317 570 266T588 162H592Q597 214 603 265T614 366L650 650H814L706 0H488L438 258Q430 296 425
335T414 410H410Q405 374 400 335T386 258L338 0H124L10 650Z" />
<glyph unicode="X" glyph-name="X" horiz-adv-x="588" d="M186 334L20 650H212L256 544Q267 521 277 495T302 436H306Q317 468 327 494T346 544L384 650H568L402 326L578 0H386L334 116Q322 142 311 168T288 224H284Q273 194 263 168T242 116L194 0H10L186 334Z" />
<glyph unicode="Y" glyph-name="Y" horiz-adv-x="544" d="M186 224L-10 650H174L222 514Q234 477 246 442T271 369H275Q288 407 300 442T326 514L374 650H554L358 224V0H186V224Z" />
<glyph unicode="Z" glyph-name="Z" horiz-adv-x="542" d="M32 104L298 506H58V650H510V546L244 144H512V0H32V104Z" />
<glyph unicode="[" glyph-name="bracketleft" horiz-adv-x="360" d="M84 708H308V618H212V-62H308V-152H84V708Z" />
<glyph unicode="\" glyph-name="backslash" horiz-adv-x="334" d="M34 710H144L320 -160H210L34 710Z" />
<glyph unicode="]" glyph-name="bracketright" horiz-adv-x="360" d="M148 -62V618H52V708H276V-152H52V-62H148Z" />
<glyph unicode="^" glyph-name="asciicircum" horiz-adv-x="540" d="M202 670H338L494 270H354L316 380L272 516H268L224 380L186 270H46L202 670Z" />
<glyph unicode="_" glyph-name="underscore" horiz-adv-x="500" d="M488 -52V-146H12V-52H488Z" />
<glyph unicode="`" glyph-name="grave" horiz-adv-x="560" d="M116 728H280L368 574H244L116 728Z" />
<glyph unicode="a" glyph-name="a" horiz-adv-x="542" d="M42 142Q42 220 106 264T314 324Q308 376 244 376Q217 376 187 366T118 334L58 446Q111 478 165 495T278 512Q375 512 430 457T486 278V0H346L334 48H330Q300 21 267 5T192 -12Q157 -12 129 0T82 34T52
83T42 142ZM206 156Q206 120 252 120Q273 120 286 129T314 154V222Q252 213 229 195T206 156Z" />
<glyph unicode="b" glyph-name="b" horiz-adv-x="580" d="M58 696H230V534L226 462Q252 486 284 499T349 512Q393 512 429 494T490 443T530 363T544 259Q544 194 527 144T480 59T414 6T336 -12Q303 -12 271 4T210 54H206L192 0H58V696ZM230 152Q245 138 261 133T294
128Q324 128 346 156T368 256Q368 318 351 345T298 372Q278 372 263 364T230 336V152Z" />
<glyph unicode="c" glyph-name="c" horiz-adv-x="472" d="M32 250Q32 312 54 361T113 443T198 494T300 512Q345 512 382 497T446 456L368 350Q351 364 338 369T310 374Q262 374 235 341T208 250Q208 193 235 160T304 126Q328 126 347 136T384 158L452 50Q414 17
369 3T284 -12Q231 -12 185 5T105 56T52 139T32 250Z" />
<glyph unicode="d" glyph-name="d" horiz-adv-x="580" d="M36 250Q36 311 53 360T99 442T165 494T240 512Q281 512 307 499T356 462L350 534V696H522V0H382L370 46H366Q340 20 307 4T240 -12Q193 -12 156 6T92 58T51 140T36 250ZM212 252Q212 184 231 156T286
128Q306 128 321 135T350 164V348Q335 362 317 367T282 372Q255 372 234 345T212 252Z" />
<glyph unicode="e" glyph-name="e" horiz-adv-x="526" d="M32 250Q32 311 52 359T106 442T183 494T272 512Q327 512 368 493T436 441T476 364T490 270Q490 247 488 229T483 202H198Q210 154 241 136T314 118Q340 118 364 125T416 148L472 46Q431 17 382 3T290
-12Q235 -12 188 5T107 56T52 139T32 250ZM344 306Q344 338 330 360T276 382Q247 382 226 365T196 306H344Z" />
<glyph unicode="f" glyph-name="f" horiz-adv-x="360" d="M362 564Q350 569 337 571T312 574Q288 574 274 561T260 512V500H344V366H260V0H88V366H22V494L88 499V506Q88 546 98 582T131 647T192 691T286 708Q321 708 348 702T392 690L362 564Z" />
<glyph unicode="g" glyph-name="g" horiz-adv-x="546" d="M170 -54Q170 -78 197 -89T268 -100Q310 -100 338 -88T366 -54Q366 -34 349 -29T299 -24H260Q230 -24 215 -23T188 -18Q179 -27 175 -35T170 -54ZM30 -82Q30 -23 100 14V18Q80 32 67 52T54 104Q54 130
69 155T110 198V202Q83 220 63 253T42 330Q42 376 60 410T108 467T176 501T256 512Q300 512 336 500H522V376H450Q453 367 455 353T458 324Q458 280 442 249T399 197T335 168T256 158Q231 158 200 165Q192 158 190 153T188 136Q188 119 204 113T258 106H333Q427
106 478 76T530 -24Q530 -65 510 -98T452 -156T361 -193T240 -206Q197 -206 159 -200T93 -178T47 -140T30 -82ZM256 260Q280 260 295 277T310 330Q310 365 295 381T256 398Q232 398 217 382T202 330Q202 294 217 277T256 260Z" />
<glyph unicode="h" glyph-name="h" horiz-adv-x="582" d="M58 696H230V534L222 448Q248 471 284 491T372 512Q454 512 491 457T528 308V0H356V286Q356 334 344 350T306 366Q282 366 266 356T230 328V0H58V696Z" />
<glyph unicode="i" glyph-name="i" horiz-adv-x="288" d="M144 562Q102 562 75 586T48 648Q48 686 75 710T144 734Q186 734 213 710T240 648Q240 610 213 586T144 562ZM58 500H230V0H58V500Z" />
<glyph unicode="j" glyph-name="j" horiz-adv-x="290" d="M60 500H232V26Q232 -16 223 -54T192 -123T132 -170T38 -188Q3 -188 -18 -184T-56 -174L-26 -48Q-15 -51 -7 -52T10 -54Q37 -54 48 -38T60 20V500ZM146 562Q104 562 77 586T50 648Q50 686 77 710T146 734Q188
734 215 710T242 648Q242 610 215 586T146 562Z" />
<glyph unicode="k" glyph-name="k" horiz-adv-x="568" d="M58 696H226V326H230L368 500H554L376 292L564 0H378L278 178L226 120V0H58V696Z" />
<glyph unicode="l" glyph-name="l" horiz-adv-x="298" d="M58 696H230V170Q230 144 239 135T258 126Q263 126 266 126T276 128L296 2Q282 -4 262 -8T212 -12Q168 -12 139 1T91 40T66 99T58 176V696Z" />
<glyph unicode="m" glyph-name="m" horiz-adv-x="868" d="M58 500H198L210 439H214Q244 468 278 490T364 512Q415 512 448 492T502 432Q533 464 569 488T656 512Q738 512 776 457T814 308V0H642V286Q642 334 630 350T592 366Q560 366 522 328V0H350V286Q350 334
338 350T300 366Q268 366 230 328V0H58V500Z" />
<glyph unicode="n" glyph-name="n" horiz-adv-x="582" d="M58 500H198L210 440H214Q244 469 282 490T372 512Q454 512 491 457T528 308V0H356V286Q356 334 344 350T306 366Q282 366 266 356T230 328V0H58V500Z" />
<glyph unicode="o" glyph-name="o" horiz-adv-x="560" d="M32 250Q32 312 52 361T107 443T187 494T280 512Q328 512 372 495T451 444T507 361T528 250Q528 188 507 139T452 57T373 6T280 -12Q232 -12 187 5T108 56T53 139T32 250ZM208 250Q208 193 224 160T280
126Q319 126 335 159T352 250Q352 307 336 340T280 374Q241 374 225 341T208 250Z" />
<glyph unicode="p" glyph-name="p" horiz-adv-x="580" d="M230 -38V-176H58V500H198L210 454H214Q242 480 277 496T350 512Q394 512 430 494T491 443T530 363T544 258Q544 193 527 143T480 59T414 6T336 -12Q274 -12 224 38L230 -38ZM230 152Q245 138 261 133T294
128Q324 128 346 156T368 256Q368 318 351 345T298 372Q278 372 263 364T230 336V152Z" />
<glyph unicode="q" glyph-name="q" horiz-adv-x="580" d="M36 250Q36 311 53 360T99 442T165 494T240 512Q280 512 310 498T370 450H374L388 500H522V-176H350V-33L356 38Q333 15 302 2T240 -12Q193 -12 156 6T92 58T51 140T36 250ZM212 252Q212 184 231 156T286
128Q306 128 321 135T350 164V348Q335 362 317 367T282 372Q255 372 234 345T212 252Z" />
<glyph unicode="r" glyph-name="r" horiz-adv-x="418" d="M58 500H198L210 414H214Q242 465 280 488T356 512Q379 512 393 510T418 502L390 354Q376 357 364 359T334 362Q307 362 278 344T230 278V0H58V500Z" />
<glyph unicode="s" glyph-name="s" horiz-adv-x="452" d="M94 164Q162 114 216 114Q243 114 254 121T266 144Q266 154 258 161T237 175T206 188T170 202Q148 211 126 223T85 254T56 295T44 350Q44 387 58 417T99 468T161 500T242 512Q304 512 348 492T426 446L350
344Q323 364 297 375T248 386Q204 386 204 358Q204 348 211 341T232 328T262 317T298 304Q320 296 343 284T384 255T414 213T426 154Q426 119 412 89T371 36T304 1T212 -12Q164 -12 111 7T18 58L94 164Z" />
<glyph unicode="t" glyph-name="t" horiz-adv-x="400" d="M80 366H14V494L90 500L110 630H252V500H366V366H252V195Q252 153 270 138T312 122Q324 122 335 124T356 130L382 6Q362 0 334 -6T264 -12Q215 -12 181 2T124 44T91 108T80 192V366Z" />
<glyph unicode="u" glyph-name="u" horiz-adv-x="578" d="M54 500H226V214Q226 166 238 150T276 134Q300 134 315 144T348 178V500H520V0H380L368 66H364Q334 30 298 9T210 -12Q169 -12 140 2T91 43T63 107T54 192V500Z" />
<glyph unicode="v" glyph-name="v" horiz-adv-x="544" d="M12 500H184L238 282Q256 207 274 126H278Q296 207 314 282L368 500H532L374 0H176L12 500Z" />
<glyph unicode="w" glyph-name="w" horiz-adv-x="798" d="M24 500H194L232 290Q238 252 242 215T252 138H256Q262 177 268 215T284 290L330 500H476L524 290Q533 252 539 215T554 138H558Q564 177 568 214T578 290L616 500H774L660 0H460L424 174Q418 209 412
244T400 321H396Q390 279 385 244T374 174L340 0H144L24 500Z" />
<glyph unicode="x" glyph-name="x" horiz-adv-x="540" d="M164 260L22 500H206L242 430Q252 409 262 387T282 344H286Q293 365 301 387T316 430L340 500H518L376 240L526 0H342L302 70Q291 91 280 113T258 156H254Q246 135 237 114T220 70L192 0H14L164 260Z" />
<glyph unicode="y" glyph-name="y" horiz-adv-x="542" d="M86 -48Q93 -50 101 -52T118 -54Q153 -54 170 -41T196 -4L202 18L12 500H184L244 308Q255 273 263 239T280 166H284Q292 202 299 237T316 308L366 500H530L362 8Q342 -43 322 -80T274 -141T213 -176T132
-188Q106 -188 90 -186T56 -178L86 -48V-48Z" />
<glyph unicode="z" glyph-name="z" horiz-adv-x="474" d="M40 92L230 366H62V500H444V408L254 134H450V0H40V92Z" />
<glyph unicode="{" glyph-name="braceleft" horiz-adv-x="360" d="M308 -62V-152H238Q203 -152 179 -145T138 -120T114 -75T106 -6Q106 20 107 40T111 78T114 114T116 156Q116 182 97 204T30 228V328Q78 330 97 352T116 400Q116 423 115 441T111 478T108 516T106
562Q106 644 137 676T238 708H308V618H292Q264 618 254 607T244 556Q244 518 246 481T248 400Q248 340 228 315T168 280V276Q208 267 228 242T248 156Q248 112 246 75T244 0Q244 -39 254 -50T292 -62H308Z" />
<glyph unicode="|" glyph-name="bar" horiz-adv-x="278" d="M84 750H194V-250H84V750Z" />
<glyph unicode="}" glyph-name="braceright" horiz-adv-x="360" d="M68 -62Q96 -62 106 -51T116 0Q116 38 114 75T112 156Q112 216 132 241T192 276V280Q152 289 132 314T112 400Q112 444 114 481T116 556Q116 595 106 606T68 618H52V708H122Q191 708 222 676T254
562Q254 536 253 516T249 478T246 442T244 400Q244 374 263 352T330 328V228Q282 226 263 204T244 156Q244 133 245 115T249 78T252 40T254 -6Q254 -47 247 -75T223 -120T181 -144T122 -152H52V-62H68Z" />
<glyph unicode="~" glyph-name="asciitilde" horiz-adv-x="540" d="M26 318Q67 378 107 402T186 426Q217 426 240 415T282 390T318 365T356 354Q376 354 393 369T426 410L514 342Q473 282 433 258T354 234Q322 234 300 245T258 269T222 294T184 306Q164 306 147
291T114 250L26 318Z" />
<glyph unicode="&#xa0;" glyph-name="uni00A0" horiz-adv-x="210" />
<glyph unicode="&#xa1;" glyph-name="exclamdown" horiz-adv-x="360" d="M260 -22L266 -170H94L100 -22L124 256H236L260 -22ZM280 408Q280 364 252 334T180 304Q136 304 108 334T80 408Q80 452 108 482T180 512Q224 512 252 482T280 408Z" />
<glyph unicode="&#xa2;" glyph-name="cent" horiz-adv-x="540" d="M280 413Q252 398 239 371T226 306Q226 230 280 199V413ZM500 106Q471 81 438 67T372 47V-44H280V47Q179 61 120 127T60 306Q60 359 76 402T122 478T191 532T280 562V656H372V567Q410 563 441
549T494 512L416 406Q393 424 372 429V184Q389 188 404 196T432 214L500 106Z" />
<glyph unicode="&#xa3;" glyph-name="sterling" horiz-adv-x="540" d="M264 144H514V0H46V106Q88 124 120 160T152 250Q152 254 152 258T151 266H52V364L120 370H122Q117 387 114 402T110 432Q110 481 127 521T174 588T245 631T334 646Q391 646 434 625T514 562L422
470Q390 508 352 508Q317 508 296 489T274 422Q274 409 276 397T280 370H424V266H301Q302 261 302 257T302 248Q302 219 294 197T264 148V144Z" />
<glyph unicode="&#xa4;" glyph-name="currency" horiz-adv-x="540" d="M17 161L77 221Q44 268 44 330Q44 362 52 388T76 437L17 497L102 582L172 512Q220 532 270 532Q320 532 368 512L438 582L523 497L463 437Q479 415 487 389T496 330Q496 298 487 271T462 221L523
161L438 76L367 147Q344 137 319 133T270 128Q218 128 173 147L102 76L17 161ZM196 330Q196 291 217 269T270 246Q302 246 323 268T344 330Q344 369 323 391T270 414Q238 414 217 392T196 330Z" />
<glyph unicode="&#xa5;" glyph-name="yen" horiz-adv-x="540" d="M184 634L224 516Q235 483 246 451T270 386H274Q285 418 297 451T320 516L360 634H532L392 352H506V272H356V222H506V142H356V0H184V142H34V222H184V272H34V352H148L8 634H184Z" />
<glyph unicode="&#xa6;" glyph-name="brokenbar" horiz-adv-x="278" d="M84 750H194V320H84V750ZM194 200V-250H84V200H194Z" />
<glyph unicode="&#xa7;" glyph-name="section" horiz-adv-x="540" d="M178 332Q178 312 192 298T230 271T281 247T337 221Q362 240 362 270Q362 290 348 305T311 332T260 355T203 380Q178 361 178 332ZM384 518Q361 538 333 552T282 566Q260 566 249 560T238 536Q238
522 258 511T307 486T372 457T436 417T486 362T506 284Q506 201 425 149Q446 117 446 74Q446 39 434 9T396 -44T332 -79T242 -92Q186 -92 131 -71T40 -2L138 84Q162 58 189 46T242 34Q269 34 280 42T292 66Q292 82 273 94T225 118T163 145T101 184T53 239T34 320Q34
355 54 389T111 447Q98 464 91 484T84 530Q84 604 134 648T272 692Q334 692 382 671T462 624L384 518Z" />
<glyph unicode="&#xa8;" glyph-name="dieresis" horiz-adv-x="560" d="M176 564Q141 564 120 586T98 642Q98 675 119 697T176 720Q211 720 232 698T254 642Q254 609 233 587T176 564ZM384 564Q349 564 328 586T306 642Q306 675 327 697T384 720Q419 720 440 698T462
642Q462 609 441 587T384 564Z" />
<glyph unicode="&#xa9;" glyph-name="copyright" horiz-adv-x="752" d="M44 326Q44 404 71 465T143 569T249 633T376 656Q443 656 503 634T608 569T681 465T708 326Q708 248 681 186T609 81T503 15T376 -8Q309 -8 249 15T144 81T71 186T44 326ZM120 326Q120 266
139 217T193 133T274 79T376 60Q431 60 477 79T558 133T612 217T632 326Q632 386 613 434T559 517T478 569T376 588Q321 588 275 570T194 517T140 435T120 326ZM192 324Q192 368 208 404T252 465T314 504T388 518Q436 518 468 500T524 458L461 388Q447 403 433
411T400 420Q355 420 334 392T313 324Q313 279 334 253T394 226Q417 226 432 234T466 256L520 178Q491 155 459 142T390 128Q346 128 310 141T248 180T207 242T192 324Z" />
<glyph unicode="&#xaa;" glyph-name="ordfeminine" horiz-adv-x="364" d="M128 252Q104 252 85 260T53 283T33 315T26 354Q26 407 68 436T208 474Q204 506 164 506Q146 506 125 499T78 478L36 556Q72 577 109 588T186 600Q251 600 289 563T328 446V260H232L222
292H218Q200 274 178 263T128 252ZM169 342Q182 342 190 347T208 362V406Q169 401 155 390T140 364Q140 342 169 342Z" />
<glyph unicode="&#xab;" glyph-name="guillemotleft" horiz-adv-x="500" d="M50 192V312L184 452L246 402L138 252L246 102L184 52L50 192ZM250 192V312L384 452L446 402L338 252L446 102L384 52L250 192Z" />
<glyph unicode="&#xac;" glyph-name="logicalnot" horiz-adv-x="540" d="M34 390H506V90H382V270H34V390Z" />
<glyph unicode="&#xad;" glyph-name="uni00AD" horiz-adv-x="340" d="M44 314H296V194H44V314Z" />
<glyph unicode="&#xae;" glyph-name="registered" horiz-adv-x="477" d="M238 308Q196 308 159 323T95 366T52 430T36 512Q36 556 52 593T95 658T159 700T238 716Q280 716 317 701T381 658T424 594T440 512Q440 468 424 431T381 366T317 324T238 308ZM238 362Q301
362 340 402T380 512Q380 581 341 621T238 662Q175 662 136 622T96 512Q96 443 135 403T238 362ZM154 610H248Q284 610 307 594T330 544Q330 527 322 513T296 490L336 416H270L242 472H218V416H154V610ZM236 515Q250 515 256 523T262 540Q262 550 255 556T236 563H218V515H236Z"
/>
<glyph unicode="&#xaf;" glyph-name="overscore" horiz-adv-x="560" d="M136 696H424V588H136V696Z" />
<glyph unicode="&#xb0;" glyph-name="degree" horiz-adv-x="378" d="M190 386Q158 386 130 397T82 429T50 476T38 536Q38 568 49 595T81 643T130 674T190 686Q222 686 250 675T298 643T330 596T342 536Q342 504 331 477T299 429T250 398T190 386ZM190 466Q219
466 236 485T254 536Q254 568 237 587T190 606Q161 606 144 587T126 536Q126 504 143 485T190 466Z" />
<glyph unicode="&#xb1;" glyph-name="plusminus" horiz-adv-x="540" d="M208 290H34V410H208V570H332V410H506V290H332V170H208V290ZM34 120H506V0H34V120Z" />
<glyph unicode="&#xb2;" glyph-name="two.sups" horiz-adv-x="380" d="M42 506Q76 533 106 558T159 606T195 649T208 686Q208 712 195 726T158 740Q140 740 125 729T92 696L22 760Q55 802 93 822T178 842Q246 842 287 807T328 708Q328 664 301 624T240 544H340V440H42V506Z"
/>
<glyph unicode="&#xb3;" glyph-name="three.sups" horiz-adv-x="380" d="M98 566Q116 542 133 532T174 522Q194 522 208 532T222 560Q222 583 203 593T140 604V674Q171 674 189 682T208 714Q208 731 197 739T168 748Q150 748 136 738T110 712L40 774Q75 810 108
826T190 842Q218 842 243 835T287 813T318 778T330 732Q330 702 317 682T278 644Q307 630 325 607T344 550Q344 523 331 501T297 462T247 437T188 428Q135 428 93 447T24 508L98 566Z" />
<glyph unicode="&#xb4;" glyph-name="acute" horiz-adv-x="560" d="M316 574H192L280 728H444L316 574Z" />
<glyph unicode="&#xb5;" glyph-name="uni00B5" horiz-adv-x="582" d="M58 500H230V214Q230 166 242 150T280 134Q304 134 319 144T352 178V500H524V0H384L372 66H368Q353 31 327 15T270 -2Q256 -2 244 0T220 12L230 -78V-200H58V500Z" />
<glyph unicode="&#xb6;" glyph-name="paragraph" horiz-adv-x="666" d="M398 650H570V-80H398V650ZM298 186Q245 186 198 201T116 247T59 321T38 424Q38 488 59 531T115 601T198 639T298 650H342V186H298Z" />
<glyph unicode="&#xb7;" glyph-name="middot" horiz-adv-x="320" d="M60 320Q60 364 88 394T160 424Q204 424 232 394T260 320Q260 276 232 246T160 216Q116 216 88 246T60 320Z" />
<glyph unicode="&#xb8;" glyph-name="cedilla" horiz-adv-x="560" d="M234 4H332L314 -40Q340 -49 356 -66T372 -116Q372 -143 357 -162T315 -195T255 -216T182 -224L170 -158Q205 -155 227 -146T250 -116Q250 -105 240 -95T194 -76L234 4Z" />
<glyph unicode="&#xb9;" glyph-name="one.sups" horiz-adv-x="380" d="M162 710H72V786Q94 789 110 793T139 802T164 814T190 830H288V440H162V710Z" />
<glyph unicode="&#xba;" glyph-name="ordmasculine" horiz-adv-x="376" d="M188 252Q156 252 126 263T73 297T36 352T22 425Q22 466 36 498T73 553T126 588T188 600Q220 600 250 588T303 554T340 499T354 425Q354 384 340 352T303 298T250 264T188 252ZM188 346Q213
346 222 367T232 425Q232 462 223 484T188 506Q163 506 154 484T144 425Q144 389 153 368T188 346Z" />
<glyph unicode="&#xbb;" glyph-name="guillemotright" horiz-adv-x="500" d="M162 252L54 402L116 452L250 312V192L116 52L54 102L162 252ZM362 252L254 402L316 452L450 312V192L316 52L254 102L362 252Z" />
<glyph unicode="&#xbc;" glyph-name="onequarter" horiz-adv-x="820" d="M131 530H41V606Q63 609 79 613T108 622T133 634T159 650H257V260H131V530ZM188 -12L536 662H632L284 -12H188ZM652 160V190L658 310H654L618 234L584 160H652ZM820 80H762V0H652V80H472V142L604
390H762V160H820V80Z" />
<glyph unicode="&#xbd;" glyph-name="onehalf" horiz-adv-x="860" d="M131 530H41V606Q63 609 79 613T108 622T133 634T159 650H257V260H131V530ZM174 -12L522 662H618L270 -12H174ZM522 66Q556 93 586 118T639 166T675 209T688 246Q688 272 675 286T638 300Q620
300 605 289T572 256L502 320Q535 362 573 382T658 402Q726 402 767 367T808 268Q808 224 781 184T720 104H820V0H522V66Z" />
<glyph unicode="&#xbe;" glyph-name="threequarters" horiz-adv-x="826" d="M95 386Q113 362 130 352T171 342Q191 342 205 352T219 380Q219 403 200 413T137 424V494Q168 494 186 502T205 534Q205 551 194 559T165 568Q147 568 133 558T107 532L37 594Q72 630
105 646T187 662Q215 662 240 655T284 633T315 598T327 552Q327 522 314 502T275 464Q304 450 322 427T341 370Q341 343 328 321T294 282T244 257T185 248Q132 248 90 267T21 328L95 386ZM204 -12L552 662H648L300 -12H204ZM658 160V190L664 310H660L624 234L590
160H658ZM826 80H768V0H658V80H478V142L610 390H768V160H826V80Z" />
<glyph unicode="&#xbf;" glyph-name="questiondown" horiz-adv-x="478" d="M326 256Q331 224 324 197T304 148T273 106T240 70T215 38T204 6Q204 -21 220 -32T260 -44Q286 -44 304 -32T342 -2L436 -88Q401 -130 353 -156T248 -182Q204 -182 167 -172T101 -141T56
-87T40 -6Q40 24 51 47T77 91T111 129T145 166T169 206T176 256H326ZM352 408Q352 364 324 334T252 304Q208 304 180 334T152 408Q152 452 180 482T252 512Q296 512 324 482T352 408Z" />
<glyph unicode="&#xc0;" glyph-name="Agrave" horiz-adv-x="584" d="M349 271L338 316Q326 363 314 418T290 522H286Q275 472 264 418T240 316L229 271H349ZM380 138H198L166 0H-10L188 650H396L594 0H412L380 138ZM114 824H294L372 700H236L114 824Z" />
<glyph unicode="&#xc1;" glyph-name="Aacute" horiz-adv-x="584" d="M349 271L338 316Q326 363 314 418T290 522H286Q275 472 264 418T240 316L229 271H349ZM380 138H198L166 0H-10L188 650H396L594 0H412L380 138ZM340 700H204L282 824H462L340 700Z" />
<glyph unicode="&#xc2;" glyph-name="Acircumflex" horiz-adv-x="584" d="M349 271L338 316Q326 363 314 418T290 522H286Q275 472 264 418T240 316L229 271H349ZM380 138H198L166 0H-10L188 650H396L594 0H412L380 138ZM108 700L204 824H372L468 700H338L290
758H286L238 700H108Z" />
<glyph unicode="&#xc3;" glyph-name="Atilde" horiz-adv-x="584" d="M349 271L338 316Q326 363 314 418T290 522H286Q275 472 264 418T240 316L229 271H349ZM380 138H198L166 0H-10L188 650H396L594 0H412L380 138ZM352 700Q332 700 315 706T282 721T255 735T232
742Q220 742 210 733T194 700H108Q117 776 150 811T224 846Q244 846 261 840T294 825T321 811T344 804Q356 804 366 813T382 846H468Q463 808 452 781T426 735T391 709T352 700Z" />
<glyph unicode="&#xc4;" glyph-name="Adieresis" horiz-adv-x="584" d="M349 271L338 316Q326 363 314 418T290 522H286Q275 472 264 418T240 316L229 271H349ZM380 138H198L166 0H-10L188 650H396L594 0H412L380 138ZM184 694Q149 694 128 716T106 772Q106 805
127 827T184 850Q219 850 240 828T262 772Q262 739 241 717T184 694ZM392 694Q357 694 336 716T314 772Q314 805 335 827T392 850Q427 850 448 828T470 772Q470 739 449 717T392 694Z" />
<glyph unicode="&#xc5;" glyph-name="Aring" horiz-adv-x="584" d="M349 271L338 316Q326 363 314 418T290 522H286Q275 472 264 418T240 316L229 271H349ZM380 138H198L166 0H-10L188 650H396L594 0H412L380 138ZM288 696Q234 696 201 723T168 798Q168 845 201
872T288 900Q342 900 375 873T408 798Q408 751 375 724T288 696ZM288 758Q304 758 315 769T326 798Q326 816 315 827T288 838Q272 838 261 827T250 798Q250 780 261 769T288 758Z" />
<glyph unicode="&#xc6;" glyph-name="AE" horiz-adv-x="854" d="M380 265V522H376Q358 475 342 431T308 348L272 265H380ZM800 144V0H380V132H215L158 0H-22L274 650H790V506H552V404H754V260H552V144H800Z" />
<glyph unicode="&#xc7;" glyph-name="Ccedilla" horiz-adv-x="586" d="M44 320Q44 402 70 465T140 572T241 639T362 662Q424 662 474 637T560 576L466 470Q442 491 419 502T364 514Q335 514 309 501T263 464T232 405T220 326Q220 234 258 185T360 136Q398 136
425 150T474 188L568 84Q526 36 472 12T358 -12Q294 -12 237 8T137 70T69 174T44 320ZM306 4H404L386 -40Q412 -49 428 -66T444 -116Q444 -143 429 -162T387 -195T327 -216T254 -224L242 -158Q277 -155 299 -146T322 -116Q322 -105 312 -95T266 -76L306 4Z" />
<glyph unicode="&#xc8;" glyph-name="Egrave" horiz-adv-x="556" d="M72 650H492V506H244V404H456V260H244V144H502V0H72V650ZM116 824H296L374 700H238L116 824Z" />
<glyph unicode="&#xc9;" glyph-name="Eacute" horiz-adv-x="556" d="M72 650H492V506H244V404H456V260H244V144H502V0H72V650ZM342 700H206L284 824H464L342 700Z" />
<glyph unicode="&#xca;" glyph-name="Ecircumflex" horiz-adv-x="556" d="M72 650H492V506H244V404H456V260H244V144H502V0H72V650ZM110 700L206 824H374L470 700H340L292 758H288L240 700H110Z" />
<glyph unicode="&#xcb;" glyph-name="Edieresis" horiz-adv-x="556" d="M72 650H492V506H244V404H456V260H244V144H502V0H72V650ZM186 694Q151 694 130 716T108 772Q108 805 129 827T186 850Q221 850 242 828T264 772Q264 739 243 717T186 694ZM394 694Q359 694
338 716T316 772Q316 805 337 827T394 850Q429 850 450 828T472 772Q472 739 451 717T394 694Z" />
<glyph unicode="&#xcc;" glyph-name="Igrave" horiz-adv-x="316" d="M72 650H244V0H72V650ZM-16 824H164L242 700H106L-16 824Z" />
<glyph unicode="&#xcd;" glyph-name="Iacute" horiz-adv-x="316" d="M72 650H244V0H72V650ZM210 700H74L152 824H332L210 700Z" />
<glyph unicode="&#xce;" glyph-name="Icircumflex" horiz-adv-x="316" d="M72 650H244V0H72V650ZM-22 700L74 824H242L338 700H208L160 758H156L108 700H-22Z" />
<glyph unicode="&#xcf;" glyph-name="Idieresis" horiz-adv-x="316" d="M72 650H244V0H72V650ZM54 694Q19 694 -2 716T-24 772Q-24 805 -3 827T54 850Q89 850 110 828T132 772Q132 739 111 717T54 694ZM262 694Q227 694 206 716T184 772Q184 805 205 827T262 850Q297
850 318 828T340 772Q340 739 319 717T262 694Z" />
<glyph unicode="&#xd0;" glyph-name="Eth" horiz-adv-x="668" d="M280 138Q315 138 346 146T399 176T435 234T448 328Q448 385 435 421T400 477T346 504T280 512H270V374H386V294H270V138H280ZM290 650Q364 650 425 632T531 575T599 475T624 328Q624 242 600 180T533
78T430 19T300 0H98V294H24V368L98 374V650H290Z" />
<glyph unicode="&#xd1;" glyph-name="Ntilde" horiz-adv-x="672" d="M72 650H248L392 360L454 214H458Q455 240 451 271T444 334T439 399T436 462V650H600V0H424L280 291L218 436H214Q220 380 228 314T236 188V0H72V650ZM400 700Q380 700 363 706T330 721T303
735T280 742Q268 742 258 733T242 700H156Q165 776 198 811T272 846Q292 846 309 840T342 825T369 811T392 804Q404 804 414 813T430 846H516Q511 808 500 781T474 735T439 709T400 700Z" />
<glyph unicode="&#xd2;" glyph-name="Ograve" horiz-adv-x="692" d="M346 -12Q278 -12 223 11T128 77T66 184T44 328Q44 408 66 470T127 575T222 640T346 662Q413 662 469 640T564 575T626 470T648 328Q648 248 626 185T565 78T469 11T346 -12ZM346 136Q405 136
438 187T472 328Q472 417 439 465T346 514Q287 514 254 466T220 328Q220 239 253 188T346 136ZM172 824H352L430 700H294L172 824Z" />
<glyph unicode="&#xd3;" glyph-name="Oacute" horiz-adv-x="692" d="M346 -12Q278 -12 223 11T128 77T66 184T44 328Q44 408 66 470T127 575T222 640T346 662Q413 662 469 640T564 575T626 470T648 328Q648 248 626 185T565 78T469 11T346 -12ZM346 136Q405 136
438 187T472 328Q472 417 439 465T346 514Q287 514 254 466T220 328Q220 239 253 188T346 136ZM398 700H262L340 824H520L398 700Z" />
<glyph unicode="&#xd4;" glyph-name="Ocircumflex" horiz-adv-x="692" d="M346 -12Q278 -12 223 11T128 77T66 184T44 328Q44 408 66 470T127 575T222 640T346 662Q413 662 469 640T564 575T626 470T648 328Q648 248 626 185T565 78T469 11T346 -12ZM346 136Q405
136 438 187T472 328Q472 417 439 465T346 514Q287 514 254 466T220 328Q220 239 253 188T346 136ZM166 700L262 824H430L526 700H396L348 758H344L296 700H166Z" />
<glyph unicode="&#xd5;" glyph-name="Otilde" horiz-adv-x="692" d="M346 -12Q278 -12 223 11T128 77T66 184T44 328Q44 408 66 470T127 575T222 640T346 662Q413 662 469 640T564 575T626 470T648 328Q648 248 626 185T565 78T469 11T346 -12ZM346 136Q405 136
438 187T472 328Q472 417 439 465T346 514Q287 514 254 466T220 328Q220 239 253 188T346 136ZM410 700Q390 700 373 706T340 721T313 735T290 742Q278 742 268 733T252 700H166Q175 776 208 811T282 846Q302 846 319 840T352 825T379 811T402 804Q414 804 424
813T440 846H526Q521 808 510 781T484 735T449 709T410 700Z" />
<glyph unicode="&#xd6;" glyph-name="Odieresis" horiz-adv-x="692" d="M346 -12Q278 -12 223 11T128 77T66 184T44 328Q44 408 66 470T127 575T222 640T346 662Q413 662 469 640T564 575T626 470T648 328Q648 248 626 185T565 78T469 11T346 -12ZM346 136Q405
136 438 187T472 328Q472 417 439 465T346 514Q287 514 254 466T220 328Q220 239 253 188T346 136ZM242 694Q207 694 186 716T164 772Q164 805 185 827T242 850Q277 850 298 828T320 772Q320 739 299 717T242 694ZM450 694Q415 694 394 716T372 772Q372 805 393
827T450 850Q485 850 506 828T528 772Q528 739 507 717T450 694Z" />
<glyph unicode="&#xd7;" glyph-name="multiply" horiz-adv-x="540" d="M47 191L185 329L47 467L132 552L270 414L408 552L493 467L355 329L493 191L408 106L270 244L132 106L47 191Z" />
<glyph unicode="&#xd8;" glyph-name="Oslash" horiz-adv-x="692" d="M287 153Q313 136 346 136Q405 136 438 187T472 328Q472 354 469 375L287 153ZM418 488Q387 514 346 514Q287 514 254 466T220 328Q220 286 227 255L418 488ZM597 532Q622 492 635 441T648 328Q648
248 626 185T565 78T469 11T346 -12Q253 -12 186 30L124 -46L36 22L105 106Q76 148 60 203T44 328Q44 408 66 470T127 575T222 640T346 662Q446 662 520 613L588 696L676 628L597 532Z" />
<glyph unicode="&#xd9;" glyph-name="Ugrave" horiz-adv-x="672" d="M68 650H240V294Q240 207 263 172T338 136Q389 136 413 171T438 294V650H604V314Q604 147 539 68T338 -12Q201 -12 135 67T68 314V650ZM162 824H342L420 700H284L162 824Z" />
<glyph unicode="&#xda;" glyph-name="Uacute" horiz-adv-x="672" d="M68 650H240V294Q240 207 263 172T338 136Q389 136 413 171T438 294V650H604V314Q604 147 539 68T338 -12Q201 -12 135 67T68 314V650ZM388 700H252L330 824H510L388 700Z" />
<glyph unicode="&#xdb;" glyph-name="Ucircumflex" horiz-adv-x="672" d="M68 650H240V294Q240 207 263 172T338 136Q389 136 413 171T438 294V650H604V314Q604 147 539 68T338 -12Q201 -12 135 67T68 314V650ZM156 700L252 824H420L516 700H386L338 758H334L286
700H156Z" />
<glyph unicode="&#xdc;" glyph-name="Udieresis" horiz-adv-x="672" d="M68 650H240V294Q240 207 263 172T338 136Q389 136 413 171T438 294V650H604V314Q604 147 539 68T338 -12Q201 -12 135 67T68 314V650ZM232 694Q197 694 176 716T154 772Q154 805 175 827T232
850Q267 850 288 828T310 772Q310 739 289 717T232 694ZM440 694Q405 694 384 716T362 772Q362 805 383 827T440 850Q475 850 496 828T518 772Q518 739 497 717T440 694Z" />
<glyph unicode="&#xdd;" glyph-name="Yacute" horiz-adv-x="544" d="M186 224L-10 650H174L222 514Q234 477 246 442T271 369H275Q288 407 300 442T326 514L374 650H554L358 224V0H186V224ZM324 700H188L266 824H446L324 700Z" />
<glyph unicode="&#xde;" glyph-name="Thorn" horiz-adv-x="630" d="M72 650H244V556H324Q376 556 423 546T506 510T563 443T584 340Q584 280 563 237T505 167T422 126T324 112H244V0H72V650ZM316 248Q367 248 391 272T416 340Q416 384 390 402T316 420H244V248H316Z" />
<glyph unicode="&#xdf;" glyph-name="germandbls" horiz-adv-x="654" d="M58 476Q58 525 73 567T119 640T198 688T312 706Q367 706 408 691T477 652T518 597T532 532Q532 497 521 473T496 430T471 397T460 366Q460 352 472 342T503 322T544 298T584 267T615 222T628
158Q628 123 616 92T580 38T520 2T434 -12Q389 -12 354 -1T280 32L338 148Q362 130 384 122T428 114Q448 114 460 123T472 150Q472 165 460 176T429 198T388 221T348 250T317 289T304 344Q304 371 314 391T336 429T358 466T368 512Q368 538 354 555T312 572Q269
572 249 541T228 458V0H58V476Z" />
<glyph unicode="&#xe0;" glyph-name="agrave" horiz-adv-x="542" d="M42 142Q42 220 106 264T314 324Q308 376 244 376Q217 376 187 366T118 334L58 446Q111 478 165 495T278 512Q375 512 430 457T486 278V0H346L334 48H330Q300 21 267 5T192 -12Q157 -12 129
0T82 34T52 83T42 142ZM206 156Q206 120 252 120Q273 120 286 129T314 154V222Q252 213 229 195T206 156ZM121 728H285L373 574H249L121 728Z" />
<glyph unicode="&#xe1;" glyph-name="aacute" horiz-adv-x="542" d="M42 142Q42 220 106 264T314 324Q308 376 244 376Q217 376 187 366T118 334L58 446Q111 478 165 495T278 512Q375 512 430 457T486 278V0H346L334 48H330Q300 21 267 5T192 -12Q157 -12 129
0T82 34T52 83T42 142ZM206 156Q206 120 252 120Q273 120 286 129T314 154V222Q252 213 229 195T206 156ZM321 574H197L285 728H449L321 574Z" />
<glyph unicode="&#xe2;" glyph-name="acircumflex" horiz-adv-x="542" d="M42 142Q42 220 106 264T314 324Q308 376 244 376Q217 376 187 366T118 334L58 446Q111 478 165 495T278 512Q375 512 430 457T486 278V0H346L334 48H330Q300 21 267 5T192 -12Q157 -12
129 0T82 34T52 83T42 142ZM206 156Q206 120 252 120Q273 120 286 129T314 154V222Q252 213 229 195T206 156ZM217 728H353L449 574H335L287 648H283L235 574H121L217 728Z" />
<glyph unicode="&#xe3;" glyph-name="atilde" horiz-adv-x="542" d="M42 142Q42 220 106 264T314 324Q308 376 244 376Q217 376 187 366T118 334L58 446Q111 478 165 495T278 512Q375 512 430 457T486 278V0H346L334 48H330Q300 21 267 5T192 -12Q157 -12 129
0T82 34T52 83T42 142ZM206 156Q206 120 252 120Q273 120 286 129T314 154V222Q252 213 229 195T206 156ZM109 574Q118 651 149 685T221 720Q241 720 258 714T291 699T318 685T341 678Q353 678 361 687T375 720H461Q452 643 421 609T349 574Q329 574 312 580T279
595T252 609T229 616Q217 616 209 607T195 574H109V574Z" />
<glyph unicode="&#xe4;" glyph-name="adieresis" horiz-adv-x="542" d="M42 142Q42 220 106 264T314 324Q308 376 244 376Q217 376 187 366T118 334L58 446Q111 478 165 495T278 512Q375 512 430 457T486 278V0H346L334 48H330Q300 21 267 5T192 -12Q157 -12 129
0T82 34T52 83T42 142ZM206 156Q206 120 252 120Q273 120 286 129T314 154V222Q252 213 229 195T206 156ZM181 564Q146 564 125 586T103 642Q103 675 124 697T181 720Q216 720 237 698T259 642Q259 609 238 587T181 564ZM389 564Q354 564 333 586T311 642Q311 675
332 697T389 720Q424 720 445 698T467 642Q467 609 446 587T389 564Z" />
<glyph unicode="&#xe5;" glyph-name="aring" horiz-adv-x="542" d="M42 142Q42 220 106 264T314 324Q308 376 244 376Q217 376 187 366T118 334L58 446Q111 478 165 495T278 512Q375 512 430 457T486 278V0H346L334 48H330Q300 21 267 5T192 -12Q157 -12 129 0T82
34T52 83T42 142ZM206 156Q206 120 252 120Q273 120 286 129T314 154V222Q252 213 229 195T206 156ZM285 550Q231 550 198 579T165 656Q165 704 198 733T285 762Q339 762 372 733T405 656Q405 608 372 579T285 550ZM285 612Q301 612 312 624T323 656Q323 676 312
688T285 700Q269 700 258 688T247 656Q247 636 258 624T285 612Z" />
<glyph unicode="&#xe6;" glyph-name="ae" horiz-adv-x="786" d="M206 156Q206 120 252 120Q274 120 291 128T324 150Q315 177 312 203L310 222Q253 213 230 196T206 156ZM58 446Q111 478 162 495T268 512Q312 512 347 495T406 448Q439 480 472 496T548 512Q599
512 637 493T700 440T737 361T750 266Q750 243 748 225T743 198H468Q479 156 507 139T574 122Q600 122 623 131T674 156L732 46Q691 17 642 3T550 -12Q497 -12 455 7T380 60Q353 39 330 26T284 4T240 -8T192 -12Q157 -12 129 0T82 34T52 83T42 142Q42 220 105 265T312
325Q309 351 294 363T244 376Q217 376 187 366T118 334L58 446ZM604 302Q604 335 591 358T542 382Q513 382 494 364T468 302H604Z" />
<glyph unicode="&#xe7;" glyph-name="ccedilla" horiz-adv-x="472" d="M32 250Q32 312 54 361T113 443T198 494T300 512Q345 512 382 497T446 456L368 350Q351 364 338 369T310 374Q262 374 235 341T208 250Q208 193 235 160T304 126Q328 126 347 136T384 158L452
50Q414 17 369 3T284 -12Q231 -12 185 5T105 56T52 139T32 250ZM241 4H339L321 -40Q347 -49 363 -66T379 -116Q379 -143 364 -162T322 -195T262 -216T189 -224L177 -158Q212 -155 234 -146T257 -116Q257 -105 247 -95T201 -76L241 4Z" />
<glyph unicode="&#xe8;" glyph-name="egrave" horiz-adv-x="526" d="M32 250Q32 311 52 359T106 442T183 494T272 512Q327 512 368 493T436 441T476 364T490 270Q490 247 488 229T483 202H198Q210 154 241 136T314 118Q340 118 364 125T416 148L472 46Q431 17
382 3T290 -12Q235 -12 188 5T107 56T52 139T32 250ZM344 306Q344 338 330 360T276 382Q247 382 226 365T196 306H344ZM108 728H272L360 574H236L108 728Z" />
<glyph unicode="&#xe9;" glyph-name="eacute" horiz-adv-x="526" d="M32 250Q32 311 52 359T106 442T183 494T272 512Q327 512 368 493T436 441T476 364T490 270Q490 247 488 229T483 202H198Q210 154 241 136T314 118Q340 118 364 125T416 148L472 46Q431 17
382 3T290 -12Q235 -12 188 5T107 56T52 139T32 250ZM344 306Q344 338 330 360T276 382Q247 382 226 365T196 306H344ZM308 574H184L272 728H436L308 574Z" />
<glyph unicode="&#xea;" glyph-name="ecircumflex" horiz-adv-x="526" d="M32 250Q32 311 52 359T106 442T183 494T272 512Q327 512 368 493T436 441T476 364T490 270Q490 247 488 229T483 202H198Q210 154 241 136T314 118Q340 118 364 125T416 148L472 46Q431
17 382 3T290 -12Q235 -12 188 5T107 56T52 139T32 250ZM344 306Q344 338 330 360T276 382Q247 382 226 365T196 306H344ZM204 728H340L436 574H322L274 648H270L222 574H108L204 728Z" />
<glyph unicode="&#xeb;" glyph-name="edieresis" horiz-adv-x="526" d="M32 250Q32 311 52 359T106 442T183 494T272 512Q327 512 368 493T436 441T476 364T490 270Q490 247 488 229T483 202H198Q210 154 241 136T314 118Q340 118 364 125T416 148L472 46Q431
17 382 3T290 -12Q235 -12 188 5T107 56T52 139T32 250ZM344 306Q344 338 330 360T276 382Q247 382 226 365T196 306H344ZM168 564Q133 564 112 586T90 642Q90 675 111 697T168 720Q203 720 224 698T246 642Q246 609 225 587T168 564ZM376 564Q341 564 320 586T298
642Q298 675 319 697T376 720Q411 720 432 698T454 642Q454 609 433 587T376 564Z" />
<glyph unicode="&#xec;" glyph-name="igrave" horiz-adv-x="288" d="M58 500H230V0H58V500ZM-20 728H144L232 574H108L-20 728Z" />
<glyph unicode="&#xed;" glyph-name="iacute" horiz-adv-x="288" d="M58 500H230V0H58V500ZM180 574H56L144 728H308L180 574Z" />
<glyph unicode="&#xee;" glyph-name="icircumflex" horiz-adv-x="288" d="M58 500H230V0H58V500ZM76 728H212L308 574H194L146 648H142L94 574H-20L76 728Z" />
<glyph unicode="&#xef;" glyph-name="idieresis" horiz-adv-x="288" d="M58 500H230V0H58V500ZM40 564Q5 564 -16 586T-38 642Q-38 675 -17 697T40 720Q75 720 96 698T118 642Q118 609 97 587T40 564ZM248 564Q213 564 192 586T170 642Q170 675 191 697T248 720Q283
720 304 698T326 642Q326 609 305 587T248 564Z" />
<glyph unicode="&#xf0;" glyph-name="eth" horiz-adv-x="566" d="M280 126Q296 126 311 133T336 156T353 197T360 260Q360 271 360 280T359 299Q341 317 321 324T277 332Q242 332 218 309T194 230Q194 177 219 152T280 126ZM386 600Q446 540 483 460T520 270Q520
209 503 158T455 69T378 10T274 -12Q226 -12 183 5T108 53T57 129T38 230Q38 285 55 327T101 399T166 443T240 458Q264 458 288 451T332 427Q307 488 258 536L116 465L72 539L183 595Q165 606 145 617T103 640L177 744Q212 726 247 706T315 661L458 733L502 658L386
600Z" />
<glyph unicode="&#xf1;" glyph-name="ntilde" horiz-adv-x="582" d="M58 500H198L210 440H214Q244 469 282 490T372 512Q454 512 491 457T528 308V0H356V286Q356 334 344 350T306 366Q282 366 266 356T230 328V0H58V500ZM138 574Q147 651 178 685T250 720Q270
720 287 714T320 699T347 685T370 678Q382 678 390 687T404 720H490Q481 643 450 609T378 574Q358 574 341 580T308 595T281 609T258 616Q246 616 238 607T224 574H138V574Z" />
<glyph unicode="&#xf2;" glyph-name="ograve" horiz-adv-x="560" d="M32 250Q32 312 52 361T107 443T187 494T280 512Q328 512 372 495T451 444T507 361T528 250Q528 188 507 139T452 57T373 6T280 -12Q232 -12 187 5T108 56T53 139T32 250ZM208 250Q208 193 224
160T280 126Q319 126 335 159T352 250Q352 307 336 340T280 374Q241 374 225 341T208 250ZM116 728H280L368 574H244L116 728Z" />
<glyph unicode="&#xf3;" glyph-name="oacute" horiz-adv-x="560" d="M32 250Q32 312 52 361T107 443T187 494T280 512Q328 512 372 495T451 444T507 361T528 250Q528 188 507 139T452 57T373 6T280 -12Q232 -12 187 5T108 56T53 139T32 250ZM208 250Q208 193 224
160T280 126Q319 126 335 159T352 250Q352 307 336 340T280 374Q241 374 225 341T208 250ZM316 574H192L280 728H444L316 574Z" />
<glyph unicode="&#xf4;" glyph-name="ocircumflex" horiz-adv-x="560" d="M32 250Q32 312 52 361T107 443T187 494T280 512Q328 512 372 495T451 444T507 361T528 250Q528 188 507 139T452 57T373 6T280 -12Q232 -12 187 5T108 56T53 139T32 250ZM208 250Q208
193 224 160T280 126Q319 126 335 159T352 250Q352 307 336 340T280 374Q241 374 225 341T208 250ZM212 728H348L444 574H330L282 648H278L230 574H116L212 728Z" />
<glyph unicode="&#xf5;" glyph-name="otilde" horiz-adv-x="560" d="M32 250Q32 312 52 361T107 443T187 494T280 512Q328 512 372 495T451 444T507 361T528 250Q528 188 507 139T452 57T373 6T280 -12Q232 -12 187 5T108 56T53 139T32 250ZM208 250Q208 193 224
160T280 126Q319 126 335 159T352 250Q352 307 336 340T280 374Q241 374 225 341T208 250ZM104 574Q113 651 144 685T216 720Q236 720 253 714T286 699T313 685T336 678Q348 678 356 687T370 720H456Q447 643 416 609T344 574Q324 574 307 580T274 595T247 609T224
616Q212 616 204 607T190 574H104V574Z" />
<glyph unicode="&#xf6;" glyph-name="odieresis" horiz-adv-x="560" d="M32 250Q32 312 52 361T107 443T187 494T280 512Q328 512 372 495T451 444T507 361T528 250Q528 188 507 139T452 57T373 6T280 -12Q232 -12 187 5T108 56T53 139T32 250ZM208 250Q208 193
224 160T280 126Q319 126 335 159T352 250Q352 307 336 340T280 374Q241 374 225 341T208 250ZM176 564Q141 564 120 586T98 642Q98 675 119 697T176 720Q211 720 232 698T254 642Q254 609 233 587T176 564ZM384 564Q349 564 328 586T306 642Q306 675 327 697T384
720Q419 720 440 698T462 642Q462 609 441 587T384 564Z" />
<glyph unicode="&#xf7;" glyph-name="divide" horiz-adv-x="540" d="M270 424Q231 424 205 448T178 510Q178 548 204 572T270 596Q309 596 335 572T362 510Q362 472 336 448T270 424ZM178 150Q178 188 204 212T270 236Q309 236 335 212T362 150Q362 112 336 88T270
64Q231 64 205 88T178 150ZM34 390H506V270H34V390Z" />
<glyph unicode="&#xf8;" glyph-name="oslash" horiz-adv-x="560" d="M236 134Q253 120 280 120Q319 120 340 153T362 240Q362 266 359 287L236 134ZM323 367Q306 380 280 380Q241 380 220 347T198 260Q198 247 198 236T200 214L323 367ZM469 424Q496 392 512 348T528
250Q528 188 507 139T452 57T373 6T280 -12Q209 -12 149 25L108 -26L46 22L90 77Q63 109 48 152T32 250Q32 312 52 361T107 443T187 494T280 512Q351 512 410 476L452 528L514 480L469 424Z" />
<glyph unicode="&#xf9;" glyph-name="ugrave" horiz-adv-x="578" d="M54 500H226V214Q226 166 238 150T276 134Q300 134 315 144T348 178V500H520V0H380L368 66H364Q334 30 298 9T210 -12Q169 -12 140 2T91 43T63 107T54 192V500ZM126 728H290L378 574H254L126 728Z" />
<glyph unicode="&#xfa;" glyph-name="uacute" horiz-adv-x="578" d="M54 500H226V214Q226 166 238 150T276 134Q300 134 315 144T348 178V500H520V0H380L368 66H364Q334 30 298 9T210 -12Q169 -12 140 2T91 43T63 107T54 192V500ZM326 574H202L290 728H454L326 574Z" />
<glyph unicode="&#xfb;" glyph-name="ucircumflex" horiz-adv-x="578" d="M54 500H226V214Q226 166 238 150T276 134Q300 134 315 144T348 178V500H520V0H380L368 66H364Q334 30 298 9T210 -12Q169 -12 140 2T91 43T63 107T54 192V500ZM222 728H358L454 574H340L292
648H288L240 574H126L222 728Z" />
<glyph unicode="&#xfc;" glyph-name="udieresis" horiz-adv-x="578" d="M54 500H226V214Q226 166 238 150T276 134Q300 134 315 144T348 178V500H520V0H380L368 66H364Q334 30 298 9T210 -12Q169 -12 140 2T91 43T63 107T54 192V500ZM186 564Q151 564 130 586T108
642Q108 675 129 697T186 720Q221 720 242 698T264 642Q264 609 243 587T186 564ZM394 564Q359 564 338 586T316 642Q316 675 337 697T394 720Q429 720 450 698T472 642Q472 609 451 587T394 564Z" />
<glyph unicode="&#xfd;" glyph-name="yacute" horiz-adv-x="542" d="M86 -48Q93 -50 101 -52T118 -54Q153 -54 170 -41T196 -4L202 18L12 500H184L244 308Q255 273 263 239T280 166H284Q292 202 299 237T316 308L366 500H530L362 8Q342 -43 322 -80T274 -141T213
-176T132 -188Q106 -188 90 -186T56 -178L86 -48V-48ZM312 574H188L276 728H440L312 574Z" />
<glyph unicode="&#xfe;" glyph-name="thorn" horiz-adv-x="580" d="M230 -176H58V696H230V533L226 468Q249 489 278 500T340 512Q386 512 424 494T488 443T529 363T544 258Q544 193 527 143T480 59T414 6T336 -12Q300 -12 275 -1T226 32L230 -38V-176ZM230 152Q245
138 261 133T294 128Q324 128 346 156T368 256Q368 318 351 345T298 372Q278 372 263 364T230 336V152Z" />
<glyph unicode="&#xff;" glyph-name="ydieresis" horiz-adv-x="542" d="M86 -48Q93 -50 101 -52T118 -54Q153 -54 170 -41T196 -4L202 18L12 500H184L244 308Q255 273 263 239T280 166H284Q292 202 299 237T316 308L366 500H530L362 8Q342 -43 322 -80T274 -141T213
-176T132 -188Q106 -188 90 -186T56 -178L86 -48V-48ZM172 564Q137 564 116 586T94 642Q94 675 115 697T172 720Q207 720 228 698T250 642Q250 609 229 587T172 564ZM380 564Q345 564 324 586T302 642Q302 675 323 697T380 720Q415 720 436 698T458 642Q458 609
437 587T380 564Z" />
<glyph unicode="&#x2013;" glyph-name="endash" horiz-adv-x="480" d="M44 308H436V200H44V308Z" />
<glyph unicode="&#x2014;" glyph-name="emdash" horiz-adv-x="800" d="M44 308H756V200H44V308Z" />
<glyph unicode="&#x2018;" glyph-name="quoteleft" horiz-adv-x="320" d="M246 604Q198 583 174 553T150 477Q153 478 160 478Q196 478 221 456T246 396Q246 354 222 329T160 304Q107 304 81 342T54 450Q54 525 92 582T210 678L246 604Z" />
<glyph unicode="&#x2019;" glyph-name="quoteright" horiz-adv-x="320" d="M74 396Q122 417 146 447T170 523Q167 522 160 522Q124 522 99 544T74 604Q74 646 98 671T160 696Q213 696 239 658T266 550Q266 475 228 418T110 322L74 396Z" />
<glyph unicode="&#x201a;" glyph-name="quotesinglbase" horiz-adv-x="320" d="M74 -103Q122 -82 146 -52T170 24Q167 23 160 23Q124 23 99 45T74 105Q74 147 98 172T160 197Q213 197 239 159T266 51Q266 -24 228 -81T110 -177L74 -103Z" />
<glyph unicode="&#x201c;" glyph-name="quotedblleft" horiz-adv-x="580" d="M246 604Q198 583 174 553T150 477Q153 478 160 478Q196 478 221 456T246 396Q246 354 222 329T160 304Q107 304 81 342T54 450Q54 525 92 582T210 678L246 604ZM506 604Q458 583 434
553T410 477Q413 478 420 478Q456 478 481 456T506 396Q506 354 482 329T420 304Q367 304 341 342T314 450Q314 525 352 582T470 678L506 604Z" />
<glyph unicode="&#x201d;" glyph-name="quotedblright" horiz-adv-x="580" d="M74 396Q122 417 146 447T170 523Q167 522 160 522Q124 522 99 544T74 604Q74 646 98 671T160 696Q213 696 239 658T266 550Q266 475 228 418T110 322L74 396ZM334 396Q382 417 406
447T430 523Q427 522 420 522Q384 522 359 544T334 604Q334 646 358 671T420 696Q473 696 499 658T526 550Q526 475 488 418T370 322L334 396Z" />
<glyph unicode="&#x201e;" glyph-name="quotedblbase" horiz-adv-x="580" d="M74 -103Q122 -82 146 -52T170 24Q167 23 160 23Q124 23 99 45T74 105Q74 147 98 172T160 197Q213 197 239 159T266 51Q266 -24 228 -81T110 -177L74 -103ZM334 -103Q382 -82 406 -52T430
24Q427 23 420 23Q384 23 359 45T334 105Q334 147 358 172T420 197Q473 197 499 159T526 51Q526 -24 488 -81T370 -177L334 -103Z" />
<glyph unicode="&#x2022;" glyph-name="bullet" horiz-adv-x="360" d="M180 116Q150 116 125 127T80 158T51 204T40 262Q40 293 50 319T80 365T124 396T180 408Q210 408 235 397T280 366T309 320T320 262Q320 231 310 205T280 159T236 128T180 116Z" />
<glyph unicode="&#x2039;" glyph-name="guilsinglleft" horiz-adv-x="300" d="M50 192V312L184 452L246 402L138 252L246 102L184 52L50 192Z" />
<glyph unicode="&#x203a;" glyph-name="guilsinglright" horiz-adv-x="300" d="M162 252L54 402L116 452L250 312V192L116 52L54 102L162 252Z" />
</font>
</defs>
</svg>
