<?xml version="1.0" standalone="no"?>
<!DOCTYPE svg PUBLIC "-//W3C//DTD SVG 1.1//EN" "http://www.w3.org/Graphics/SVG/1.1/DTD/svg11.dtd">
<svg xmlns="http://www.w3.org/2000/svg">
<defs >
<font id="OldStandardTT" horiz-adv-x="605" ><font-face
    font-family="Old Standard TT"
    units-per-em="1000"
    panose-1="0 0 5 0 0 0 0 0 0 0"
    ascent="762"
    descent="-238"
    alphabetic="0" />
<glyph unicode=" " glyph-name="space" horiz-adv-x="280" />
<glyph unicode="!" glyph-name="exclam" horiz-adv-x="280" d="M166 361Q179 430 185 493Q193 568 204 624Q218 694 274 694Q300 694 313 676T326 624Q326 600 311 559T268 454Q236 380 224 346L154 158H130L166 361ZM91 -12T74 5T56 50Q56 77 73 94T118 112Q145
112 162 95T180 50Q180 23 163 6T118 -12Q91 -12 74 5Z" />
<glyph unicode="&quot;" glyph-name="quotedbl" horiz-adv-x="394" d="M192 666Q195 689 205 709T242 730Q266 730 266 704Q266 692 258 671L196 520H172L192 666ZM346 666Q349 689 359 709T396 730Q420 730 420 704Q420 692 412 671L350 520H326L346 666Z" />
<glyph unicode="#" glyph-name="numbersign" horiz-adv-x="684" d="M88 0L172 196H56L67 236H188L282 450H125L136 490H299L381 684H425L342 490H488L571 684H615L532 490H665L654 450H516L424 236H593L582 196H405L322 0H278L361 196H216L132 0H88ZM232 236H380L472
450H326L232 236Z" />
<glyph unicode="$" glyph-name="dollar" horiz-adv-x="580" d="M164 -7Q110 9 80 52T50 142Q50 184 73 216T130 248Q153 248 168 236T184 201Q184 182 170 168T129 153Q113 153 104 138Q98 129 98 112Q98 83 118 60T173 25L260 348L233 363Q198 383 179 411T160
493Q160 548 188 590T261 658T354 694L372 762H404L387 699Q394 700 406 700Q426 700 442 697L460 762H492L473 691Q528 674 561 635T594 552Q594 499 570 470T506 441Q489 441 474 451T458 482Q458 503 470 516T504 534Q517 536 524 539T538 546Q550 554 550 576Q550
599 527 623T464 659L386 370L419 351Q448 334 467 318T498 272T510 198Q510 149 482 105T401 29T283 -12L264 -80H232L250 -15Q241 -16 224 -16Q212 -16 194 -14L176 -80H144L164 -7ZM434 666Q412 668 400 668Q386 668 378 667L310 414L358 386L434 666ZM344 660Q291
646 254 613T216 529Q216 498 227 477T256 445L282 430L344 660ZM250 16T258 17L336 304L288 332L203 18Q221 16 232 16Q250 16 258 17ZM360 35T399 75T438 174Q438 221 424 241T386 276L364 289L291 21Q360 35 399 75Z" />
<glyph unicode="%" glyph-name="percent" horiz-adv-x="860" d="M164 0L644 593L639 595Q607 577 570 566T504 554Q460 554 422 572Q420 522 395 468T326 377T226 340Q183 340 156 374T128 462Q128 512 153 568T223 662T324 700Q360 700 385 676T419 610Q426 595
453 587T504 578Q560 578 619 608T718 683L750 724L774 700L188 -24L164 0ZM294 380T325 408T375 485T394 588Q374 602 363 620T351 652Q351 666 357 672Q349 676 338 676Q299 676 268 646T218 567T200 462Q200 422 217 401T256 380Q294 380 325 408ZM555 -16T528
18T500 106Q500 156 525 212T595 306T696 344Q739 344 766 310T794 222Q794 172 769 116T699 22T598 -16Q555 -16 528 18ZM667 24T698 54T748 133T766 238Q766 278 749 299T710 320Q671 320 640 290T590 211T572 106Q572 66 589 45T628 24Q667 24 698 54Z" />
<glyph unicode="&amp;" glyph-name="ampersand" horiz-adv-x="740" d="M139 -18T98 20T56 129Q56 203 99 262T199 359T301 411L359 432Q365 498 390 560T458 662T554 702Q598 702 616 674T635 612Q635 548 590 511T488 455L429 434V169L604 401Q621 424 642 441T692
458Q723 458 739 439T756 390Q756 372 745 355T710 337Q698 337 688 343T678 367Q678 383 691 396Q702 407 702 416Q702 422 697 427T682 432Q668 432 657 422T626 388L430 140Q430 81 439 47T484 12Q513 12 549 47T617 128T664 202L682 192Q646 120 592 51T474
-18Q424 -18 401 6T367 72Q329 32 291 7T203 -18Q139 -18 98 20ZM478 474Q525 489 562 521T599 611Q599 632 589 652T552 672Q526 672 498 651T449 581T429 456L478 474ZM265 12T296 34T361 95Q357 107 357 131V406L321 393Q241 364 197 292T152 124Q152 69 171
41T225 12Q265 12 296 34Z" />
<glyph unicode="&apos;" glyph-name="quotesingle" horiz-adv-x="240" d="M192 666Q195 689 205 709T242 730Q266 730 266 704Q266 692 258 671L196 520H172L192 666Z" />
<glyph unicode="(" glyph-name="parenleft" horiz-adv-x="370" d="M141 -147T113 -68T84 92Q84 215 130 335T255 557T430 730L454 706Q261 548 194 384T126 92Q126 19 150 -50T216 -174L184 -198Q141 -147 113 -68Z" />
<glyph unicode=")" glyph-name="parenright" horiz-adv-x="370" d="M-62 -174Q131 -16 198 148T266 440Q266 513 242 582T176 706L208 730Q251 679 279 600T308 440Q308 317 262 197T137 -25T-38 -198L-62 -174Z" />
<glyph unicode="*" glyph-name="asterisk" horiz-adv-x="580" d="M327 290T317 302Q307 313 307 333Q307 348 319 376Q333 412 333 453Q333 468 325 468Q320 468 311 462Q275 438 255 413Q227 374 199 374Q183 374 172 386Q162 396 162 411Q162 449 229 458Q264
462 303 484L308 488Q313 491 313 495Q313 499 308 502L303 506Q264 528 229 532Q162 541 162 579Q162 594 172 604Q183 616 199 616Q227 616 255 577Q275 552 311 528Q320 522 325 522Q333 522 333 537Q333 578 319 614Q307 643 307 657Q307 677 317 688Q328 700
345 700Q362 700 373 688Q383 677 383 657Q383 643 371 614Q357 578 357 537Q357 522 365 522Q370 522 379 528Q415 552 435 577Q464 616 491 616Q508 616 518 604Q528 594 528 579Q528 541 461 532Q426 528 387 506L382 502Q377 499 377 495Q377 491 382 488L387
484Q426 462 461 458Q528 449 528 411Q528 396 518 386Q508 374 491 374Q464 374 435 413Q415 438 379 462Q370 468 365 468Q357 468 357 453Q357 412 371 376Q383 348 383 333Q383 313 373 302Q363 290 345 290Q327 290 317 302Z" />
<glyph unicode="+" glyph-name="plus" horiz-adv-x="940" d="M456 -156V244H56V284H456V684H500V284H900V244H500V-156H456Z" />
<glyph unicode="," glyph-name="comma" horiz-adv-x="280" d="M22 -152Q71 -127 108 -90T145 -5Q145 10 136 18Q128 25 107 25Q86 25 73 41T60 77Q60 106 77 123T121 140Q152 140 169 114T186 59Q186 -36 135 -91T30 -168L22 -152Z" />
<glyph unicode="-" glyph-name="hyphen" horiz-adv-x="370" d="M56 231T74 255T124 280H300Q315 280 321 286T328 308H346Q346 273 328 249T278 224H102Q87 224 81 218T74 196H56Q56 231 74 255Z" />
<glyph unicode="." glyph-name="period" horiz-adv-x="280" d="M95 -12T78 5T60 50Q60 77 77 94T122 112Q149 112 166 95T184 50Q184 23 167 6T122 -12Q95 -12 78 5Z" />
<glyph unicode="/" glyph-name="slash" horiz-adv-x="440" d="M68 -198L366 730H406L108 -198H68Z" />
<glyph unicode="0" glyph-name="zero" horiz-adv-x="580" d="M148 -16T110 57T72 256Q72 358 114 461T233 632T402 700Q482 700 520 627T558 428Q558 326 516 223T397 52T228 -16Q148 -16 110 57ZM292 16T334 74T412 238Q441 325 459 405T478 540Q478 668 404
668Q340 668 296 609T218 446Q152 248 152 143Q152 16 226 16Q292 16 334 74Z" />
<glyph unicode="1" glyph-name="one" horiz-adv-x="580" d="M62 32H155Q170 32 178 38T191 58L328 563Q315 554 293 546T257 533T238 527L204 516L197 536Q269 557 326 589T421 684H452L282 58Q280 50 280 47Q280 39 285 36T302 32H400L392 0H54L62 32Z" />
<glyph unicode="2" glyph-name="two" horiz-adv-x="580" d="M264 -17T237 4T183 61Q163 88 148 101T114 114Q93 114 84 105T74 70Q74 57 81 52Q90 44 94 38T98 23Q98 11 91 2T68 -8Q51 -8 42 1T32 26Q32 90 68 144T174 235L310 315Q373 352 421 414T470 540Q470
593 443 630T353 668Q316 668 280 647T219 596T195 540Q195 507 212 507Q218 507 228 513Q242 520 252 520Q274 520 285 507T296 474Q296 448 277 429T228 410Q201 410 179 434T156 499Q156 556 186 602T264 674T362 700Q456 700 511 651T566 522Q566 461 528 414T442
338T331 280L216 227Q167 205 142 182T116 143Q144 143 197 120Q235 105 266 96T329 87Q368 87 399 104T445 155L464 201H483Q467 116 423 50T305 -17Q264 -17 237 4Z" />
<glyph unicode="3" glyph-name="three" horiz-adv-x="580" d="M176 -16T139 0T77 47T52 120Q52 169 82 194T147 220Q174 220 187 204T200 166Q200 145 186 131T150 116Q138 116 130 121Q122 126 112 126Q104 126 99 121T94 105Q94 59 132 38T216 16Q250 16 281
34T336 86Q363 126 377 181T392 278Q392 316 380 341T320 366Q308 366 300 363T281 350Q257 328 235 328Q218 328 209 335T200 354Q200 368 210 379T240 391H343Q372 391 400 412T448 466Q472 507 472 575Q472 616 448 642T371 668Q338 668 306 657T254 626T233
583Q233 562 244 562Q247 562 253 565Q262 568 269 568Q288 568 296 559T304 530Q304 508 290 493T248 477Q221 477 204 497T186 548Q186 594 213 628T285 681T377 700Q430 700 471 679T535 619T558 534Q558 491 533 457T470 402T398 376L397 369Q432 356 460 320T488
226Q488 173 462 124T393 42Q359 16 312 0T213 -16Q176 -16 139 0Z" />
<glyph unicode="4" glyph-name="four" horiz-adv-x="580" d="M126 32H219Q234 32 242 38T254 58L294 208H64L74 244L290 438Q345 492 398 570T462 694H544Q536 656 504 613T409 510L116 244H303L347 396Q386 423 416 460T461 535H478L398 244H556L546 208H389L349
58Q347 50 347 47Q347 39 352 36T370 32H463L454 0H117L126 32Z" />
<glyph unicode="5" glyph-name="five" horiz-adv-x="580" d="M150 -16T106 20T62 114Q62 154 85 180T140 207Q169 207 184 193T200 150Q200 130 187 116T149 102L133 103Q124 103 116 99Q106 92 106 82Q106 53 137 35T216 16Q264 16 303 44T370 126Q389 164 401
217T414 312Q414 418 313 418Q279 418 246 394T195 317Q191 304 183 295T166 286Q137 286 137 310Q137 326 144 338T167 367Q194 396 202 422L252 585Q266 631 266 658Q266 670 263 683L287 700Q311 672 343 649T410 626Q456 626 492 643T559 700L574 685Q541 633
501 600T391 566Q337 566 292 609L236 423L240 420Q254 432 282 442T330 452Q415 452 461 408T508 284Q508 232 485 172T419 68Q381 29 330 7T222 -16Q150 -16 106 20Z" />
<glyph unicode="6" glyph-name="six" horiz-adv-x="580" d="M181 -16T136 41T90 212Q90 284 116 374T189 540Q240 622 304 661T431 700Q455 700 477 692T515 671Q548 643 548 595Q548 554 527 528T477 502Q456 502 443 513T429 545Q429 572 443 584T475 600Q500
606 500 625Q500 633 497 639T483 655Q465 668 429 668Q381 668 334 625T254 514Q215 433 203 347L210 342Q236 382 275 404T355 426Q428 426 468 380T509 261Q509 209 487 156T428 62Q400 32 357 8T252 -16Q181 -16 136 41ZM296 16T326 39T378 101Q399 140 410
188T422 284Q422 330 402 360T342 390Q259 390 203 265Q178 210 178 120Q178 74 200 45T260 16Q296 16 326 39Z" />
<glyph unicode="7" glyph-name="seven" horiz-adv-x="580" d="M178 -17T161 1T144 54Q144 106 194 176T320 330L508 538L504 542Q495 536 484 533T464 530Q433 530 411 541T362 576Q341 594 326 603T291 612Q260 612 239 589T191 515L170 474H151L219 702H238Q234
689 234 673Q234 660 238 652T251 644Q277 667 300 679T354 692Q380 692 401 676T442 633Q461 607 477 594T514 580Q535 580 544 588T554 606Q554 619 542 625Q535 630 532 635T528 651Q528 666 536 673T555 681Q592 681 592 633Q592 607 573 579T512 501Q405 376
366 324T302 214Q284 170 278 136T272 62Q272 25 255 4T208 -17Q178 -17 161 1Z" />
<glyph unicode="8" glyph-name="eight" horiz-adv-x="580" d="M205 -16T164 4T95 64T68 161Q68 212 93 254T154 318Q179 334 198 341T251 354Q225 373 205 411T184 497Q184 576 235 635Q264 668 307 684T390 700Q476 700 527 659T578 544Q578 503 561 462T513
398Q490 380 459 366T404 347Q446 311 466 275T486 192Q486 144 470 107T420 41Q390 14 346 -1T248 -16Q205 -16 164 4ZM423 369T455 393T506 452T524 522Q524 591 489 629T386 668Q359 668 329 655T276 609T254 526Q254 495 262 478T290 443L381 363Q423 369 455
393ZM301 16T336 33T393 79T414 142Q414 215 376 248L271 336Q236 328 213 319T166 287Q143 265 128 232T112 162Q112 93 149 55T260 16Q301 16 336 33Z" />
<glyph unicode="9" glyph-name="nine" horiz-adv-x="580" d="M181 -16T159 -8T121 13Q88 41 88 89Q88 130 109 156T159 182Q180 182 193 171T207 139Q207 112 193 100T161 84Q136 78 136 59Q136 51 139 45T153 29Q171 16 207 16Q255 16 302 59T382 170Q421 251
433 337L426 342Q400 302 361 280T281 258Q208 258 168 304T127 423Q127 475 149 528T208 622Q236 652 279 676T384 700Q455 700 500 643T546 472Q546 400 520 310T447 144Q396 62 332 23T205 -16Q181 -16 159 -8ZM377 294T433 419Q458 474 458 564Q458 610 436
639T376 668Q340 668 310 645T258 583Q237 544 226 496T214 400Q214 354 234 324T294 294Q377 294 433 419Z" />
<glyph unicode=":" glyph-name="colon" horiz-adv-x="280" d="M187 332T170 349T152 394Q152 421 169 438T214 456Q241 456 258 439T276 394Q276 367 259 350T214 332Q187 332 170 349ZM95 -12T78 5T60 50Q60 77 77 94T122 112Q149 112 166 95T184 50Q184 23 167
6T122 -12Q95 -12 78 5Z" />
<glyph unicode=";" glyph-name="semicolon" horiz-adv-x="280" d="M187 332T170 349T152 394Q152 421 169 438T214 456Q241 456 258 439T276 394Q276 367 259 350T214 332Q187 332 170 349ZM22 -152Q71 -127 108 -90T145 -5Q145 10 136 18Q128 25 107 25Q86 25
73 41T60 77Q60 106 77 123T121 140Q152 140 169 114T186 59Q186 -36 135 -91T30 -168L22 -152Z" />
<glyph unicode="&lt;" glyph-name="less" horiz-adv-x="940" d="M840 -156L84 250V278L840 684L860 648L146 264L860 -120L840 -156Z" />
<glyph unicode="=" glyph-name="equal" horiz-adv-x="940" d="M56 338V378H900V338H56ZM56 148V188H900V148H56Z" />
<glyph unicode="&gt;" glyph-name="greater" horiz-adv-x="940" d="M100 -156L80 -120L794 264L80 648L100 684L856 278V250L100 -156Z" />
<glyph unicode="?" glyph-name="question" horiz-adv-x="436" d="M189 154T163 178T136 242Q136 279 158 311T218 364L342 438Q420 481 420 544Q420 597 395 630T324 664Q274 664 243 650T199 617T186 581Q186 562 199 556Q214 550 220 544Q226 537 228 531T230
515Q230 502 220 490T191 478Q169 478 156 492Q138 510 138 541Q138 582 168 617T244 673T333 694Q411 694 451 650T492 534Q492 489 461 450T382 388L249 324Q216 306 197 283T178 236Q178 210 193 197T230 184Q271 184 290 207T310 262Q310 268 307 277T300 291L312
300Q319 293 324 281T330 254Q330 212 300 183T226 154Q189 154 163 178ZM147 -12T130 5T112 50Q112 77 129 94T174 112Q201 112 218 95T236 50Q236 23 219 6T174 -12Q147 -12 130 5Z" />
<glyph unicode="@" glyph-name="at" horiz-adv-x="820" d="M346 -18T265 29T140 160T96 355Q96 457 145 543T280 679T468 730Q577 730 655 684T773 557T814 377Q814 323 789 266T712 170T586 131Q548 131 522 151T491 206L486 207Q469 181 437 156T366 131Q321
131 288 163T254 255Q254 318 271 380T321 481Q363 532 409 555T497 579Q523 579 543 560T568 524H573L584 567H656L572 257Q566 233 566 214Q566 187 577 171T602 155Q663 155 700 193T751 286T766 397Q766 492 728 561T621 666T459 702Q373 702 301 654T186 522T144
335Q144 235 182 162T294 50T468 10Q556 10 644 68L660 45Q627 21 577 2T458 -18Q346 -18 265 29ZM421 155T461 208T522 335L545 420Q550 438 550 457Q550 495 536 525T497 555Q457 555 426 528T364 435Q346 396 334 337T322 223Q322 192 337 174T370 155Q421 155
461 208Z" />
<glyph unicode="A" glyph-name="A" horiz-adv-x="728" d="M-36 32H1Q42 32 74 53T125 104L536 712H560V75Q562 50 574 41T608 32H664L656 0H360L368 32H430Q451 32 461 41T472 78V244H263L195 144Q161 95 161 66Q161 32 201 32H256L248 0H-44L-36 32ZM285 276H472V552L285
276Z" />
<glyph unicode="B" glyph-name="B" horiz-adv-x="690" d="M-2 32H74Q101 32 108 59L269 653Q271 661 271 665Q271 680 250 680H174L182 712H530Q577 712 617 695T681 643T706 559Q706 503 671 464T586 404T485 376L484 374Q526 372 563 352T622 298T644 220Q644
155 601 105T493 27T364 0H-10L-2 32ZM424 394Q493 394 534 420T593 485T610 561Q610 680 499 680H394Q367 680 360 653L290 394H424ZM381 32Q428 32 464 59T519 129T538 215Q538 283 508 322T419 362H281L199 59Q197 51 197 48Q197 32 218 32H381Z" />
<glyph unicode="C" glyph-name="C" horiz-adv-x="670" d="M252 -18T204 11T124 101T92 252Q92 367 148 478T292 659T474 730Q511 730 539 716T585 684L603 666Q613 656 618 653T632 649Q651 649 662 673T677 722H700L636 416H613Q614 436 614 479Q614 514 605
564T571 647Q533 698 470 698Q411 698 362 662T266 536Q233 474 211 383T188 196Q188 119 207 79T255 27T321 14Q377 14 429 46T520 130T581 242L612 231Q576 125 499 54T304 -18Q252 -18 204 11Z" />
<glyph unicode="D" glyph-name="D" horiz-adv-x="750" d="M-2 32H74Q101 32 108 59L269 653Q271 661 271 665Q271 680 250 680H174L183 712H504Q574 712 624 679T700 588T726 453Q726 374 697 293T616 148Q562 81 492 41T334 0H-10L-2 32ZM344 32Q474 32 557 180Q590
239 610 323T630 500Q630 580 596 630T482 680H394Q367 680 360 653L199 59Q197 51 197 48Q197 32 218 32H344Z" />
<glyph unicode="E" glyph-name="E" horiz-adv-x="700" d="M-2 32H74Q101 32 108 59L269 653Q271 661 271 665Q271 680 250 680H174L182 712H734L688 484H663Q664 488 665 500T666 532Q666 616 639 648T558 680H394Q367 680 360 653L287 384H395Q434 384 458 405T493
456T516 526H541L455 202H430Q440 246 440 277Q440 312 427 332T380 352H279L199 59Q197 51 197 48Q197 32 218 32H404Q430 32 465 44T528 84Q556 112 579 152T617 226T634 268H658L574 0H-10L-2 32Z" />
<glyph unicode="F" glyph-name="F" horiz-adv-x="680" d="M-2 32H74Q101 32 108 59L269 653Q271 661 271 665Q271 680 250 680H174L182 712H734L688 484H663Q664 488 665 500T666 532Q666 616 639 648T558 680H394Q367 680 360 653L287 384H394Q433 384 457 405T492
456T515 526H540L454 202H429Q439 246 439 277Q439 312 426 332T379 352H279L199 59Q197 51 197 48Q197 32 218 32H330L322 0H-10L-2 32Z" />
<glyph unicode="G" glyph-name="G" horiz-adv-x="740" d="M246 -18T198 15T121 109T92 252Q92 367 147 478T291 659T474 730Q553 730 614 676Q631 660 639 655T657 649Q688 649 701 722H724L660 416H637Q638 435 638 479Q638 597 595 647Q572 673 538 685T470
698Q410 698 362 662T266 536Q233 474 211 383T188 196Q188 84 224 49T314 14Q364 14 408 46T481 127T521 224L532 277Q533 281 533 288Q533 304 512 304H412L420 336H730L722 304H658Q631 304 623 277L562 -14H537V56Q537 97 522 97Q514 97 505 90T485 70Q402
-18 304 -18Q246 -18 198 15Z" />
<glyph unicode="H" glyph-name="H" horiz-adv-x="800" d="M-2 32H74Q101 32 108 59L269 653Q271 661 271 664Q271 680 250 680H174L182 712H478L470 680H394Q368 680 360 653L287 384H596L669 653Q671 661 671 664Q671 680 650 680H574L582 712H878L870 680H794Q768
680 760 653L599 59Q597 51 597 48Q597 32 618 32H694L686 0H390L398 32H474Q501 32 508 59L588 352H279L199 59Q197 51 197 48Q197 32 218 32H294L286 0H-10L-2 32Z" />
<glyph unicode="I" glyph-name="I" horiz-adv-x="400" d="M-2 32H74Q101 32 108 59L269 653Q271 661 271 665Q271 680 250 680H174L182 712H478L470 680H394Q367 680 360 653L199 59Q197 51 197 48Q197 32 218 32H294L286 0H-10L-2 32Z" />
<glyph unicode="J" glyph-name="J" horiz-adv-x="540" d="M86 -18T50 18T14 110Q14 157 40 186T104 216Q131 216 148 200T166 159Q166 129 149 110T100 91Q91 91 86 85T80 68Q80 43 99 29T156 14Q205 14 241 50T292 139L431 653Q433 661 433 665Q433 680 412 680H300L308
712H640L632 680H556Q529 680 522 653L395 185Q378 123 340 77T251 6T148 -18Q86 -18 50 18Z" />
<glyph unicode="K" glyph-name="K" horiz-adv-x="756" d="M-2 32H74Q101 32 108 59L269 653Q271 661 271 665Q271 680 250 680H174L182 712H478L470 680H394Q367 680 360 653L280 356L578 580Q611 605 625 620T640 654Q640 668 625 674T586 680H562L570 712H844L836
680Q804 680 771 668T691 622L448 442L570 76Q579 51 593 42T640 32H682L674 0H382L390 32H442Q457 32 467 39T477 61Q477 69 474 78L375 387L267 307L199 59Q197 51 197 48Q197 32 218 32H294L286 0H-10L-2 32Z" />
<glyph unicode="L" glyph-name="L" horiz-adv-x="680" d="M-2 32H74Q101 32 108 59L269 653Q271 661 271 665Q271 680 250 680H174L183 712H478L470 680H394Q367 680 360 653L199 59Q197 51 197 48Q197 32 218 32H404Q430 32 465 44T528 84Q556 112 579 152T617
226T634 268H658L574 0H-10L-2 32Z" />
<glyph unicode="M" glyph-name="M" horiz-adv-x="894" d="M348 680H328L176 126Q170 104 170 84Q170 32 220 32H268L260 0H-10L-2 32H46Q79 32 102 58T137 126L280 653Q282 661 282 665Q282 680 261 680H174L182 712H436V157L740 712H972L964 680H888Q874 680
866 674T854 653L693 59Q691 51 691 49Q691 32 714 32H790L782 0H484L492 32H568Q595 32 602 59L770 680H755L373 -12H348V680Z" />
<glyph unicode="N" glyph-name="N" horiz-adv-x="790" d="M312 603H307L176 126Q170 104 170 83Q170 32 220 32H268L260 0H-10L-2 32H46Q78 32 102 59T137 126L280 653Q282 661 282 664Q282 680 261 680H174L182 712H364L573 129L698 586Q705 610 705 629Q705
680 654 680H606L614 712H884L876 680H828Q799 680 774 655T737 586L573 -18H533L312 603Z" />
<glyph unicode="O" glyph-name="O" horiz-adv-x="710" d="M240 -18T192 18T118 114T92 248Q92 378 148 489T293 665T474 730Q538 730 586 694T660 596T686 462Q686 332 630 222T485 47T304 -18Q240 -18 192 18ZM397 14T454 84T546 248Q573 324 581 396T590 520Q590
607 558 652T466 698Q381 698 324 628T232 464Q205 388 197 316T188 192Q188 105 220 60T312 14Q397 14 454 84Z" />
<glyph unicode="P" glyph-name="P" horiz-adv-x="654" d="M-2 32H74Q101 32 108 59L269 653L271 665Q271 680 250 680H174L183 712H524Q598 712 644 671T690 554Q690 494 654 443T550 360T394 328H272L199 59Q198 55 198 48Q198 39 202 36T218 32H330L322 0H-10L-2
32ZM415 360Q454 360 490 379T552 432Q572 460 583 497T594 572Q594 627 568 653T502 680H394Q367 680 360 653L281 360H415Z" />
<glyph unicode="Q" glyph-name="Q" horiz-adv-x="710" d="M380 -184T352 -161T324 -91Q324 -73 331 -40L337 -15Q322 -18 304 -18Q240 -18 192 18T118 114T92 248Q92 378 148 489T293 665T474 730Q538 730 586 694T660 597T686 460Q686 346 643 250T536 90T412
5V-39Q412 -79 420 -105T457 -132Q514 -132 548 -10L572 -17Q550 -112 510 -148T424 -184Q380 -184 352 -161ZM244 38Q231 56 231 82Q231 135 257 159T322 183Q360 183 383 146T411 45Q495 106 542 235T590 520Q590 607 558 652T466 698Q386 698 323 627T224 440T188
192Q188 80 240 38H244ZM324 14T344 18L352 55Q355 67 355 81Q355 112 346 133T308 155Q285 155 272 137T259 82Q259 48 273 31T311 14Q324 14 344 18Z" />
<glyph unicode="R" glyph-name="R" horiz-adv-x="720" d="M506 -12T480 9T454 81Q454 104 458 127T468 170T474 196Q490 251 490 277Q490 316 469 336T414 356H279L199 59Q198 55 198 48Q198 32 218 32H318L310 0H-10L-2 32H74Q101 32 108 59L269 653Q271 661
271 665Q271 680 250 680H174L182 712H493Q578 712 625 671T672 550Q672 508 645 470T574 405T480 369L479 365Q570 321 570 220Q570 194 558 138Q548 90 548 72Q548 58 554 49T576 40Q613 40 634 76T669 162L694 155Q681 110 668 78T624 17T546 -12Q506 -12 480
9ZM410 388Q486 388 531 437T576 574Q576 627 550 653T474 680H394Q367 680 360 653L288 388H410Z" />
<glyph unicode="S" glyph-name="S" horiz-adv-x="620" d="M250 -18T205 7T139 53Q129 63 122 68T109 73Q93 73 79 46T57 -10H34L114 306H137Q132 276 132 253Q132 190 157 135T226 47T319 14Q403 14 447 49T491 152Q491 192 471 217T410 268L294 339Q233 375 205
415T177 520Q177 625 237 677T396 730Q432 730 467 711T525 672Q535 663 541 660T554 656Q571 656 585 678T605 722H628L570 462H547Q550 510 530 566T471 660T387 698Q336 698 301 679T248 630T231 565Q231 518 258 490T333 435L427 380Q473 352 499 330T540 276T555
198Q555 98 491 40T311 -18Q250 -18 205 7Z" />
<glyph unicode="T" glyph-name="T" horiz-adv-x="690" d="M114 32H214Q240 32 247 59L408 653Q410 663 410 665Q410 680 390 680H357Q323 680 293 663T242 627Q213 599 191 559T155 483T141 444H116L196 712H744L681 444H656Q657 448 659 462T665 500T668 548Q668
622 638 651T568 680H535Q505 680 499 653L338 59Q337 55 337 48Q337 40 341 36T356 32H456L448 0H106L114 32Z" />
<glyph unicode="U" glyph-name="U" horiz-adv-x="784" d="M284 -18T233 8T156 78T130 176Q130 200 139 238L251 653Q253 661 253 664Q253 680 232 680H156L164 712H460L452 680H376Q362 680 354 674T342 653L223 211Q214 173 214 154Q214 88 256 51T369 14Q459
14 513 67T588 198L695 588Q701 612 701 630Q701 651 690 665T650 680H602L610 712H880L872 680H824Q793 680 769 654T733 586L629 208Q600 102 539 42T361 -18Q284 -18 233 8Z" />
<glyph unicode="V" glyph-name="V" horiz-adv-x="752" d="M248 636Q245 661 234 670T200 680H140L148 712H452L444 680H374Q351 680 344 668T336 633V139L596 536Q617 568 627 592T638 638Q638 657 627 668T594 680H550L558 712H854L846 680H807Q769 680 737 658T687
607L273 -18H248V636Z" />
<glyph unicode="W" glyph-name="W" horiz-adv-x="1078" d="M244 636Q241 662 230 671T197 680H140L148 712H444L436 680H368Q345 680 339 669T332 633V145L576 536Q607 583 607 636Q607 661 595 670T560 680H508L516 712H812L804 680H747Q722 680 709 663T695
617V156L933 531Q971 590 971 636Q971 651 959 665T931 680H876L884 712H1180L1172 680H1128Q1094 680 1070 659T1025 605L632 -18H607V517L269 -18H244V636Z" />
<glyph unicode="X" glyph-name="X" horiz-adv-x="840" d="M19 32H62Q103 32 135 51T201 108L418 345L289 630Q280 650 274 659T255 674T220 680H152L160 712H472L464 680H419Q407 680 395 670T383 645Q383 638 386 630L483 417L634 582Q645 593 649 606T654 638Q654
680 603 680H566L574 712H886L878 680H842Q770 680 722 628L499 381L642 68Q653 45 665 39T699 32H760L752 0H432L440 32H504Q520 32 531 40T542 62Q542 71 538 80L434 309L281 140Q265 122 259 108T253 74Q253 32 305 32H339L330 0H10L19 32Z" />
<glyph unicode="Y" glyph-name="Y" horiz-adv-x="720" d="M114 32H214Q240 32 247 58L317 318L238 636Q230 661 219 670T188 680H114L122 712H438L430 680H371Q351 680 339 670T327 645Q327 637 329 633L395 355L567 553Q590 580 603 600T617 641Q617 680 569
680H526L534 712H830L822 680H775Q718 680 656 607L411 329L338 58Q336 50 336 46Q336 32 356 32H456L448 0H106L114 32Z" />
<glyph unicode="Z" glyph-name="Z" horiz-adv-x="680" d="M44 31L552 680H372Q329 680 293 662T216 602Q191 576 174 549T149 503T141 480H116L200 712H672L664 680L158 32H380Q452 32 506 79Q537 106 562 148T604 227T621 268H646L560 0H36L44 31Z" />
<glyph unicode="[" glyph-name="bracketleft" horiz-adv-x="380" d="M272 712H482L474 682H354Q341 680 337 677T328 662L111 -136Q110 -140 110 -147Q110 -165 125 -168H242L234 -198H24L272 712Z" />
<glyph unicode="\" glyph-name="backslash" horiz-adv-x="440" d="M370 -198L72 730H112L410 -198H370Z" />
<glyph unicode="]" glyph-name="bracketright" horiz-adv-x="380" d="M-82 -168H38Q51 -166 55 -163T64 -148L281 650Q282 654 282 661Q282 679 267 682H150L158 712H368L120 -198H-90L-82 -168Z" />
<glyph unicode="^" glyph-name="asciicircum" horiz-adv-x="580" d="M88 336L316 700L544 336H496L316 622L136 336H88Z" />
<glyph unicode="_" glyph-name="underscore" horiz-adv-x="520" d="M-41 -158L-31 -118H489L479 -158H-41Z" />
<glyph unicode="`" glyph-name="grave" horiz-adv-x="350" d="M228 605Q214 621 214 640Q214 652 222 664T250 676Q265 676 274 667T290 637L330 518L313 508L228 605Z" />
<glyph unicode="a" glyph-name="a" horiz-adv-x="536" d="M101 -12T72 25T42 125Q42 186 60 242T101 335Q136 390 182 423T277 456Q308 456 333 435T369 368L373 366L395 444H461L376 129Q362 73 362 49Q362 35 366 29T380 22Q407 22 436 66T489 182L509 176Q483
99 446 44T362 -12Q304 -12 304 90Q304 103 304 109T305 117L302 119Q281 74 241 31T154 -12Q101 -12 72 25ZM197 12T231 49T294 150Q314 195 329 250T344 340Q344 384 326 408T277 432Q246 432 218 398T170 320Q145 264 130 201T114 85Q114 55 124 34T160 12Q197
12 231 49Z" />
<glyph unicode="b" glyph-name="b" horiz-adv-x="480" d="M156 -12T129 6T85 57T68 136Q68 165 74 185L206 666Q208 674 208 677Q208 688 191 688H102L109 712H286L188 353L193 349Q220 396 257 426T338 456Q390 456 418 412T446 310Q446 247 412 172T335 52Q303
20 268 4T188 -12Q156 -12 129 6ZM236 12T262 42T313 120Q374 235 374 349Q374 379 363 405T330 432Q296 432 260 399T194 306Q169 256 154 203T138 106Q138 69 149 41T202 12Q236 12 262 42Z" />
<glyph unicode="c" glyph-name="c" horiz-adv-x="424" d="M126 -12T89 37T52 158Q52 218 74 276T140 381Q175 418 210 437T290 456Q328 456 357 432T386 356Q386 326 370 306T329 286Q310 286 300 297T290 324Q290 353 322 376Q333 385 333 402Q333 411 322 421T286
432Q208 432 150 258Q139 225 132 176T124 98Q124 54 143 33T191 12Q253 12 292 62T347 155L368 148Q344 80 295 34T186 -12Q126 -12 89 37Z" />
<glyph unicode="d" glyph-name="d" horiz-adv-x="530" d="M101 -12T72 25T42 125Q42 185 64 243T113 343Q146 396 191 426T283 456Q313 456 337 433T369 368L373 366L454 666L455 673Q455 688 438 688H350L357 712H534L376 129Q362 73 362 49Q362 35 366 29T380
22Q407 22 436 67T489 182L509 176Q481 98 445 43T362 -12Q304 -12 304 90Q304 103 304 109T305 117L302 119Q281 74 241 31T154 -12Q101 -12 72 25ZM197 12T231 49T294 150Q314 195 329 250T344 340Q344 384 326 408T277 432Q246 432 218 398T170 320Q145 264
130 201T114 85Q114 55 124 34T160 12Q197 12 231 49Z" />
<glyph unicode="e" glyph-name="e" horiz-adv-x="410" d="M126 -12T89 37T52 158Q52 218 74 276T140 381Q212 456 290 456Q330 456 355 437T381 372Q381 294 280 247Q246 231 212 225T138 215Q133 194 129 161T124 98Q124 54 143 33T191 12Q253 12 292 62T347
155L368 148Q344 80 295 34T186 -12Q126 -12 89 37ZM217 245T261 265Q293 279 313 309T333 378Q333 407 321 419T291 432Q250 432 215 395T164 313Q159 297 153 275T144 240Q217 245 261 265Z" />
<glyph unicode="f" glyph-name="f" horiz-adv-x="320" d="M138 416H35L41 444H145L157 483Q163 506 178 541T206 596Q280 720 383 720Q418 720 441 699T464 648Q464 621 449 604T413 586Q397 586 389 595T380 619Q380 629 384 637T396 651Q412 659 412 673Q412
683 405 689T384 696Q352 696 327 682T277 626T231 506L213 444H325L319 416H206L26 -238H-42L138 416Z" />
<glyph unicode="g" glyph-name="g" horiz-adv-x="480" d="M47 -248T15 -222T-17 -150Q-17 -122 -1 -106T37 -90Q56 -90 66 -102T77 -130Q77 -155 58 -170Q53 -175 51 -179T49 -192Q49 -224 92 -224Q126 -224 151 -212T201 -167Q226 -134 241 -97T268 -16Q274 3
286 47T305 117L302 119Q281 74 241 31T154 -12Q101 -12 72 25T42 125Q42 185 64 243T113 343Q146 396 191 426T283 456Q313 456 337 433T369 368L373 366L395 444H461L338 -7Q325 -54 297 -106T233 -192Q202 -221 167 -234T100 -248Q47 -248 15 -222ZM197 12T231
49T294 150Q314 195 329 250T344 340Q344 384 326 408T277 432Q246 432 218 398T170 320Q145 264 130 201T114 85Q114 55 124 34T160 12Q197 12 231 49Z" />
<glyph unicode="h" glyph-name="h" horiz-adv-x="512" d="M312 -12T294 12T275 84Q275 106 281 136T295 186L359 335Q364 346 369 364T375 394Q375 408 370 417T353 426Q293 426 226 313Q186 245 155 178T110 66L90 0H24L206 666Q208 674 208 676Q208 688 190
688H102L109 712H286L154 233L158 230L172 255Q216 340 261 398T362 456Q392 456 409 432T427 360Q427 338 421 307T407 258L343 109Q338 98 333 80T327 50Q327 36 333 27T350 18Q384 18 415 70T468 182L488 176Q461 95 423 42T339 -12Q312 -12 294 12Z" />
<glyph unicode="i" glyph-name="i" horiz-adv-x="334" d="M246 586T231 601T216 638Q216 661 231 675T268 690Q291 690 305 676T320 638Q320 616 306 601T268 586Q246 586 231 601ZM134 -12T116 12T97 84Q97 106 103 136T117 186L181 335Q186 346 191 364T197
394Q197 408 192 417T175 426Q141 426 110 374T56 262L36 268Q63 348 102 402T186 456Q212 456 230 431T249 360Q249 338 243 307T229 258L165 109Q160 98 155 80T149 50Q149 36 155 27T172 18Q206 18 237 70T290 182L310 176Q283 95 245 42T161 -12Q134 -12 116
12Z" />
<glyph unicode="j" glyph-name="j" horiz-adv-x="326" d="M270 586T255 601T240 638Q240 661 255 675T292 690Q315 690 329 676T344 638Q344 616 330 601T292 586Q270 586 255 601ZM-43 -248T-70 -226T-97 -163Q-97 -135 -79 -115T-37 -95Q-19 -95 -9 -105T1 -133Q1
-159 -22 -173Q-30 -178 -34 -182T-38 -196Q-38 -224 -7 -224Q22 -224 47 -202T87 -127L98 -78L112 -21L204 318Q205 324 211 347T218 392Q218 404 213 413T196 422Q164 422 132 371T76 254L56 260Q82 336 123 396T216 456Q252 456 266 433T280 382Q280 353 269
306L173 -46Q159 -97 131 -143T66 -219T-13 -248Q-43 -248 -70 -226Z" />
<glyph unicode="k" glyph-name="k" horiz-adv-x="490" d="M278 -12T257 7T236 68Q236 96 250 134Q251 138 255 152T260 181Q260 203 251 214T214 226H154L90 0H24L206 666Q208 674 208 676Q208 688 190 688H102L109 712H286L160 250H223Q249 250 271 288T309 379Q322
422 345 439T394 456Q408 456 421 449T440 434Q450 421 453 410T456 384Q456 357 442 340T406 322Q392 322 381 331T370 356Q370 370 379 383Q386 394 386 400Q386 408 382 412T367 416Q353 416 345 406T331 377Q318 334 298 292T259 243L258 238Q284 236 304 216T324
162Q324 136 312 96Q304 64 304 53Q304 41 309 32T325 23Q331 23 336 25T350 34Q376 53 393 88T432 182L452 176Q387 -12 308 -12Q278 -12 257 7Z" />
<glyph unicode="l" glyph-name="l" horiz-adv-x="290" d="M54 -12T54 90Q54 110 64 150L206 666Q208 674 208 676Q208 688 190 688H102L109 712H284L128 138Q112 74 112 49Q112 35 116 29T131 22Q159 22 187 68T239 182L259 176Q232 100 197 44T112 -12Q54 -12 54 90Z" />
<glyph unicode="m" glyph-name="m" horiz-adv-x="806" d="M606 -12T588 12T569 84Q569 106 575 136T589 186L653 335Q658 346 663 364T669 394Q669 408 664 417T647 426Q587 426 520 313Q480 245 449 178T404 66L384 0H318L401 309Q403 316 410 341T418 387Q418
426 386 426Q360 426 315 359T228 204T170 66L150 0H84L168 309Q183 369 183 394Q183 408 179 415T164 422Q113 422 56 262L36 268Q102 456 182 456Q241 456 241 353Q241 336 232 294T214 233L218 230L230 252Q275 338 317 397T399 456Q476 456 476 361Q476 340
467 300T449 233L452 230L466 255Q510 340 555 398T656 456Q686 456 703 432T721 360Q721 338 715 307T701 258L637 109Q632 98 627 80T621 50Q621 36 627 27T644 18Q678 18 709 70T762 182L782 176Q755 95 717 42T633 -12Q606 -12 588 12Z" />
<glyph unicode="n" glyph-name="n" horiz-adv-x="572" d="M372 -12T354 12T335 84Q335 106 341 136T355 186L419 335Q424 346 429 364T435 394Q435 408 430 417T413 426Q353 426 286 313Q246 245 215 178T170 66L150 0H84L168 310Q183 370 183 395Q183 409 179
415T164 422Q136 422 108 376T56 262L36 268Q102 456 183 456Q241 456 241 354Q241 334 232 293T215 233L218 230L232 255Q276 340 321 398T422 456Q452 456 469 432T487 360Q487 338 481 307T467 258L403 109Q398 98 393 80T387 50Q387 36 393 27T410 18Q444 18
475 70T528 182L548 176Q521 95 483 42T399 -12Q372 -12 354 12Z" />
<glyph unicode="o" glyph-name="o" horiz-adv-x="462" d="M152 -12T122 7T72 67T52 164Q52 234 85 302T175 413T294 456Q328 456 358 437T407 377T426 280Q426 210 393 142T305 31T186 -12Q152 -12 122 7ZM230 12T257 44T307 130Q328 179 341 236T354 340Q354
381 338 406T290 432Q250 432 222 400T171 314Q150 265 137 208T124 104Q124 63 141 38T190 12Q230 12 257 44Z" />
<glyph unicode="p" glyph-name="p" horiz-adv-x="540" d="M-68 -210H6Q18 -210 24 -205T33 -188L170 321Q182 369 182 395Q182 410 178 416T162 422Q135 422 106 374T55 262L35 268Q101 456 183 456Q214 456 227 428T240 361Q240 347 240 338T239 327L242 325Q263
370 303 413T390 456Q443 456 472 419T502 319Q502 258 484 202T443 109Q408 54 362 21T267 -12Q236 -12 211 9T175 76L171 78L101 -188L99 -198Q99 -205 103 -207T116 -210H238L230 -238H-76L-68 -210ZM298 12T326 46T374 124Q399 180 414 243T430 359Q430 389
420 410T384 432Q347 432 313 395T250 294Q230 249 215 194T200 104Q200 60 218 36T267 12Q298 12 326 46Z" />
<glyph unicode="q" glyph-name="q" horiz-adv-x="480" d="M74 -210H195Q207 -210 213 -205T222 -188Q235 -142 263 -39T305 117L302 119Q278 68 240 28T154 -12Q101 -12 72 25T42 125Q42 185 64 243T113 343Q146 396 191 426T283 456Q315 456 340 431T373 349H378L444
444H462L290 -188Q289 -191 289 -197Q289 -210 307 -210H381L373 -238H66L74 -210ZM197 12T231 49T294 150Q314 195 329 250T344 340Q344 384 326 408T277 432Q246 432 218 398T170 320Q145 264 130 201T114 85Q114 55 124 34T160 12Q197 12 231 49Z" />
<glyph unicode="r" glyph-name="r" horiz-adv-x="430" d="M168 310Q183 370 183 395Q183 409 179 415T164 422Q136 422 107 375T56 262L36 268Q102 456 183 456Q241 456 241 354Q241 341 238 324T232 296L239 294Q273 365 307 410T379 456Q412 456 429 436T446
387Q446 361 429 341T384 320Q367 320 356 332T345 362Q345 380 357 394Q367 404 367 409Q367 415 365 418T354 421Q331 421 295 359T223 211T169 62L150 0H84L168 310Z" />
<glyph unicode="s" glyph-name="s" horiz-adv-x="420" d="M119 -12T88 5T40 49T24 106Q24 129 38 150T79 172Q94 172 105 162T116 133Q116 108 95 101Q83 97 76 90T69 67Q69 38 102 25T171 12Q224 12 252 36T280 96Q280 116 272 133T248 163L165 226Q118 256 118
317Q118 361 140 392T198 440T272 456Q312 456 340 437T383 391T398 344Q398 321 385 304T346 287Q331 287 319 297T306 324Q306 343 319 354Q323 358 333 364Q345 371 345 380Q345 403 320 417T266 432Q226 432 196 409T166 345Q166 320 172 310T195 289L288 219Q310
203 323 185T336 136Q336 99 316 65T256 10T165 -12Q119 -12 88 5Z" />
<glyph unicode="t" glyph-name="t" horiz-adv-x="320" d="M93 -12T73 10T52 72Q52 110 63 154L135 416H66L73 444H143L208 684H274L209 444H322L315 416H201L118 108Q115 98 113 81T110 52Q110 43 117 33T139 23Q152 23 165 31Q188 47 204 85T237 182L257 176Q237
91 207 40T126 -12Q93 -12 73 10Z" />
<glyph unicode="u" glyph-name="u" horiz-adv-x="572" d="M132 -12T115 12T97 84Q97 106 103 137T117 186L181 335Q186 346 191 364T197 394Q197 408 191 417T174 426Q140 426 109 374T56 262L36 268Q63 349 101 402T185 456Q212 456 230 432T249 360Q249 338
243 308T229 258L165 109Q160 98 155 80T149 50Q149 36 154 27T171 18Q231 18 298 131Q338 199 369 266T414 378L434 444H500L416 134Q401 74 401 49Q401 35 405 29T420 22Q448 22 476 68T528 182L548 176Q482 -12 401 -12Q343 -12 343 90Q343 110 352 151T369
211L366 214L352 189Q308 104 263 46T162 -12Q132 -12 115 12Z" />
<glyph unicode="v" glyph-name="v" horiz-adv-x="472" d="M146 -12T122 13T97 84Q97 106 103 137T117 186L181 335Q186 346 191 364T197 394Q197 408 191 417T174 426Q140 426 109 374T56 262L36 268Q63 349 101 402T185 456Q212 456 230 432T249 360Q249 338
243 308T229 258L165 109Q160 98 155 80T149 50Q149 30 158 21T190 12Q252 12 304 65T386 189T416 310Q416 329 408 337T386 348Q367 352 350 367T332 406Q332 429 345 442T381 456Q418 456 435 423T452 344Q452 292 422 207T329 55T178 -12Q146 -12 122 13Z" />
<glyph unicode="w" glyph-name="w" horiz-adv-x="716" d="M141 -12T119 13T97 84Q97 106 103 137T117 186L181 335Q186 346 191 364T197 394Q197 408 191 417T174 426Q140 426 109 374T56 262L36 268Q63 349 101 402T185 456Q212 456 230 432T249 360Q249 338
243 308T229 258L165 109Q160 98 155 80T149 50Q149 12 184 12Q221 12 265 62T346 186T402 324L434 444H500L409 108Q401 77 401 46Q401 33 409 23T434 12Q496 12 548 65T630 189T660 310Q660 330 652 337T630 348Q611 352 594 367T576 406Q576 429 589 442T625
456Q662 456 679 423T696 344Q696 292 666 207T573 55T422 -12Q387 -12 365 9T343 78Q343 99 345 113T352 145L346 147Q314 82 266 35T174 -12Q141 -12 119 13Z" />
<glyph unicode="x" glyph-name="x" horiz-adv-x="564" d="M83 -12T67 -6T43 10Q34 21 30 34T25 59Q25 92 43 114Q61 138 89 138Q102 138 113 130Q127 120 127 98Q127 64 96 50Q86 45 83 41T79 28Q79 21 85 17T101 12Q149 12 185 65T244 202L269 294Q277 323 277
360Q277 391 265 411T225 432Q186 432 147 388T84 289L63 296Q89 360 133 408T233 456Q276 456 297 427T321 355L325 353Q356 401 392 428T469 456Q486 456 502 450T526 434Q535 423 539 410T544 385Q544 352 526 330Q508 306 480 306Q467 306 456 314Q442 325
442 346Q442 376 471 390Q482 395 486 401T490 416Q490 423 484 427T468 432Q421 432 386 379T325 242L300 150Q292 123 292 84Q292 53 304 33T344 12Q383 12 422 56T485 155L506 148Q480 84 436 36T336 -12Q293 -12 272 17T248 89L244 91Q213 43 177 16T100 -12Q83
-12 67 -6Z" />
<glyph unicode="y" glyph-name="y" horiz-adv-x="512" d="M90 -248T57 -222T24 -150Q24 -122 40 -106T78 -90Q97 -90 107 -102T118 -130Q118 -155 99 -170Q94 -175 92 -179T90 -192Q90 -224 133 -224Q168 -224 193 -213T243 -170Q268 -139 282 -101T309 -16L352
145L346 147Q314 82 266 35T174 -12Q141 -12 119 13T97 84Q97 106 103 137T117 186L181 335Q186 346 191 364T197 394Q197 408 191 417T174 426Q140 426 109 374T56 262L36 268Q63 349 101 402T185 456Q212 456 230 432T249 360Q249 338 243 308T229 258L165 109Q160
98 155 80T149 50Q149 12 184 12Q221 12 265 62T346 186T402 324L435 444H501L383 0Q371 -43 346 -95T283 -186Q251 -219 214 -233T144 -248Q90 -248 57 -222Z" />
<glyph unicode="z" glyph-name="z" horiz-adv-x="440" d="M46 -12T36 -1T26 30Q26 100 78 154T197 237Q285 273 321 297T371 352L369 356Q342 336 318 336Q297 336 283 342T251 362Q237 373 227 378T202 384Q159 384 135 355T94 286L78 293Q93 349 129 402T216
456Q243 456 263 441T301 399Q314 382 322 374T340 366Q354 366 361 371T369 384Q369 389 368 392T360 398Q354 401 349 408T344 424Q344 438 351 447T372 456Q391 456 400 443T410 408Q410 375 387 338T325 269T239 216Q169 186 137 170T91 140T73 107Q115 96
149 78Q174 65 195 59T244 52Q289 52 317 88T361 171L380 163Q358 89 324 39T233 -12Q196 -12 171 3T123 46Q110 61 101 68T81 76Q60 76 60 60Q60 49 75 44Q92 37 92 19Q92 6 85 -3T62 -12Q46 -12 36 -1Z" />
<glyph unicode="{" glyph-name="braceleft" horiz-adv-x="420" d="M106 -157T106 -71Q106 -38 119 -6T160 80Q183 122 195 151T208 207Q208 237 186 247T120 258L125 276Q169 276 197 285T242 327T260 425V473Q260 581 312 640T466 730L472 706Q417 689 390 673T349
625T334 536V475Q331 404 300 347T194 268L193 266Q220 256 238 234T256 174Q256 137 241 100T198 13Q175 -28 165 -53T154 -99Q154 -126 174 -141T234 -172L215 -196Q106 -157 106 -71Z" />
<glyph unicode="|" glyph-name="bar" horiz-adv-x="284" d="M144 -198V730H188V-198H144Z" />
<glyph unicode="}" glyph-name="braceright" horiz-adv-x="420" d="M-8 -172Q47 -155 74 -139T115 -91T130 -2V59Q133 130 164 187T270 266L271 268Q244 278 226 300T208 360Q208 397 223 434T266 521Q289 562 299 587T310 633Q310 660 290 675T230 706L249 730Q358
691 358 605Q358 572 345 540T304 454Q281 412 269 383T256 327Q256 297 278 287T344 276L339 258Q295 258 267 249T222 207T204 109V61Q204 -47 152 -106T-2 -196L-8 -172Z" />
<glyph unicode="~" glyph-name="asciitilde" horiz-adv-x="660" d="M93 177T77 200T60 253Q60 293 90 322T174 352Q216 352 263 336T382 288Q444 260 482 246T550 232Q566 232 578 244T590 278Q590 299 579 313T548 338L560 359Q591 345 607 322T624 269Q624 229
594 200T510 170Q467 170 421 186T302 234Q234 264 198 277T134 290Q118 290 106 278T94 244Q94 223 105 209T136 184L124 163Q93 177 77 200Z" />
<glyph unicode="&#xa0;" glyph-name="uni00A0" horiz-adv-x="280" />
<glyph unicode="&#xa1;" glyph-name="exclamdown" horiz-adv-x="280" d="M177 334T160 351T142 396Q142 423 159 440T204 458Q231 458 248 441T266 396Q266 369 249 352T204 334Q177 334 160 351ZM22 -248T9 -230T-4 -178Q-4 -154 11 -113T54 -8Q86 66 98 100L168
288H192L156 85Q143 16 137 -47Q129 -122 118 -178Q104 -248 48 -248Q22 -248 9 -230Z" />
<glyph unicode="&#xa2;" glyph-name="cent" horiz-adv-x="580" d="M239 -8Q191 4 164 50T136 158Q136 206 153 265T224 381Q258 417 291 435T365 456L398 576H422L390 456Q413 456 436 445T475 410T490 356Q490 326 474 306T433 286Q414 286 404 296T394 321Q394
347 426 370Q437 379 437 393Q437 410 423 421T383 432L268 12H275Q324 12 364 44T429 126L450 119Q426 67 380 28T270 -12H262L232 -120H208L239 -8ZM358 432Q347 432 330 422T298 392Q262 348 234 258Q208 175 208 98Q208 68 217 48T246 18L358 432Z" />
<glyph unicode="&#xa3;" glyph-name="sterling" horiz-adv-x="720" d="M16 -16T-8 -2T-32 41Q-32 86 12 111T112 136Q164 136 219 121Q258 189 290 320Q232 328 200 328Q170 328 152 323T108 306L100 328Q117 340 143 348T200 356Q243 356 297 347Q387 700 574
700Q619 700 646 681T685 636T696 588Q696 553 676 532T630 510Q607 510 588 522T569 561Q569 581 581 590T606 600Q618 600 626 596Q634 592 644 592Q652 592 656 595T660 609Q660 635 639 656T573 678Q517 678 481 637T426 537T392 400Q386 363 376 332Q429 322
480 322Q510 322 531 327T572 344L580 322Q566 311 539 303T480 294Q432 294 368 305Q330 185 267 106Q294 96 317 87Q361 69 391 61T448 52Q540 52 590 102T656 225L676 219Q667 171 646 123T590 45Q553 12 515 -2T417 -16Q378 -16 340 -2T250 42L221 57Q142 -16
48 -16Q16 -16 -8 -2ZM130 8T187 73Q122 102 68 102Q41 102 19 86T-4 43Q-4 21 12 15T52 8Q130 8 187 73Z" />
<glyph unicode="&#xa4;" glyph-name="currency" horiz-adv-x="580" d="M80 136L147 203Q98 263 98 342Q98 381 111 417T148 482L80 550L111 581L178 514Q207 538 243 551T318 564Q357 564 393 551T458 514L525 581L556 550L488 482Q512 453 525 417T538 342Q538
263 489 203L556 136L525 105L458 172Q429 148 393 135T318 122Q279 122 243 135T178 172L111 105L80 136ZM369 162T410 185T474 250T498 342Q498 393 475 435T410 500T318 524Q267 524 226 501T162 435T138 342Q138 291 161 250T226 186T318 162Q369 162 410 185Z"
/>
<glyph unicode="&#xa5;" glyph-name="yen" horiz-adv-x="580" d="M73 32H149Q177 32 184 60L224 206H84L93 238H233L249 298H109L118 330H252L190 613Q185 633 179 642T156 652H93L102 684H362L353 652H312Q285 652 281 635Q280 633 280 626Q280 618 282 610L335
358L503 562Q510 571 517 585T524 612Q524 626 517 639T491 652H449L458 684H690L681 652H643Q623 652 607 639T567 598L346 330H486L477 298H337L321 238H461L452 206H312L272 60Q270 52 270 49Q270 32 293 32H369L360 0H64L73 32Z" />
<glyph unicode="&#xa6;" glyph-name="brokenbar" horiz-adv-x="284" d="M144 370V730H188V370H144ZM144 -168V192H188V-168H144Z" />
<glyph unicode="&#xa7;" glyph-name="section" horiz-adv-x="620" d="M164 -186T134 -166T88 -116T72 -54Q72 -18 94 7T150 32Q166 32 180 21T194 -12Q194 -30 182 -42T155 -55Q148 -55 138 -51Q132 -48 127 -48Q124 -48 121 -50Q116 -54 116 -74Q116 -107 144
-131T216 -156Q243 -156 271 -143T317 -100T336 -26Q336 4 321 23T274 66L164 149Q104 195 104 260Q104 307 143 359T232 437Q212 469 212 521Q212 578 240 619T310 681T394 702Q436 702 466 682T512 632T528 570Q528 534 506 509T450 484Q434 484 420 495T406
528Q406 546 418 558T445 571Q453 571 459 569L469 567Q475 567 478 570Q484 576 484 590Q484 623 456 647T384 672Q357 672 329 657T283 612T264 537Q264 508 277 492T320 454L436 367Q496 321 496 256Q496 209 457 157T368 79Q388 47 388 -5Q388 -62 360 -103T290
-165T206 -186Q164 -186 134 -166ZM395 115T419 151T444 226Q444 265 404 296L269 398Q254 410 242 423Q205 401 181 365T156 290Q156 251 196 220L331 118Q346 106 358 93Q395 115 419 151Z" />
<glyph unicode="&#xa8;" glyph-name="dieresis" horiz-adv-x="488" d="M232 548T218 562T203 596Q203 616 217 630T251 644Q271 644 285 630T299 596Q299 577 285 563T251 548Q232 548 218 562ZM420 548T406 562T391 596Q391 616 405 630T439 644Q459 644 473
630T487 596Q487 577 473 563T439 548Q420 548 406 562Z" />
<glyph unicode="&#xa9;" glyph-name="copyright" horiz-adv-x="820" d="M333 -18T250 32T120 168T72 356Q72 458 119 543T250 679T434 730Q535 730 618 680T748 544T796 356Q796 254 749 169T618 33T434 -18Q333 -18 250 32ZM526 10T602 57T723 183T768 356Q768
449 724 528T603 655T434 702Q342 702 266 655T145 529T100 356Q100 263 144 184T265 57T434 10Q526 10 602 57ZM382 110T336 143T267 228T244 338Q244 411 268 468T339 558T448 590Q488 590 530 557Q536 552 539 551T550 550Q559 550 565 561T572 584H590V420H572Q568
458 548 492T500 546T448 566Q332 566 332 338Q332 263 359 199T446 134Q507 134 537 176T574 278H598Q594 212 556 161T446 110Q382 110 336 143Z" />
<glyph unicode="&#xaa;" glyph-name="ordfeminine" horiz-adv-x="380" d="M148 412T128 437T108 503Q108 544 126 590T178 668T254 700Q274 700 289 687T308 658H311L320 694H370L315 497Q306 467 306 453Q306 448 308 444T317 439Q336 439 356 468T389 534L401
529Q385 486 359 449T305 412Q279 412 268 426T256 454Q256 464 259 471L257 472Q246 451 225 432T184 412Q148 412 128 437ZM216 430T243 471T285 563L293 594Q298 610 298 636Q298 654 288 668T255 682Q229 682 207 651T173 571T160 475Q160 457 167 444T190
430Q216 430 243 471ZM88 362L95 386H336L329 362H88Z" />
<glyph unicode="&#xab;" glyph-name="guillemotleft" horiz-adv-x="440" d="M145 89T117 137T54 228Q111 271 166 319T295 438L306 428L144 228L198 28L181 18Q145 89 117 137ZM242 174T202 228Q273 284 365 382L376 372L269 228L298 84L281 74Q242 174 202 228Z" />
<glyph unicode="&#xac;" glyph-name="logicalnot" horiz-adv-x="580" d="M512 240V406H72V446H556V240H512Z" />
<glyph unicode="&#xad;" glyph-name="uni00AD" horiz-adv-x="370" d="M56 231T74 255T124 280H300Q315 280 321 286T328 308H346Q346 273 328 249T278 224H102Q87 224 81 218T74 196H56Q56 231 74 255Z" />
<glyph unicode="&#xae;" glyph-name="registered" horiz-adv-x="820" d="M333 -18T250 32T120 168T72 356Q72 458 119 543T250 679T434 730Q535 730 618 680T748 544T796 356Q796 254 749 169T618 33T434 -18Q333 -18 250 32ZM526 10T602 57T723 183T768 356Q768
449 724 528T603 655T434 702Q342 702 266 655T145 529T100 356Q100 263 144 184T265 57T434 10Q526 10 602 57ZM562 118T542 132Q505 158 505 219V273Q505 320 485 339T438 358H360V176Q360 164 365 159T382 154H426V130H224V154H266Q278 154 283 159T288 176V540Q288
552 283 557T266 562H224V586H452Q515 586 556 558T598 476Q598 425 563 401T490 370V366Q522 359 548 334T581 251L583 228Q586 190 592 172T618 154Q642 154 651 183T660 244H678Q678 197 661 158T593 118Q562 118 542 132ZM437 382Q470 382 490 405T510 470Q510
513 493 537T436 562H382Q370 562 365 557T360 540V382H437Z" />
<glyph unicode="&#xaf;" glyph-name="overscore" horiz-adv-x="515" d="M188 546L198 586H512L502 546H188Z" />
<glyph unicode="&#xb0;" glyph-name="degree" horiz-adv-x="580" d="M249 340T222 374T194 462Q194 512 219 568T289 662T390 700Q433 700 460 666T488 578Q488 528 463 472T393 378T292 340Q249 340 222 374ZM361 380T392 410T442 489T460 594Q460 634 443 655T404
676Q365 676 334 646T284 567T266 462Q266 422 283 401T322 380Q361 380 392 410Z" />
<glyph unicode="&#xb1;" glyph-name="plusminus" horiz-adv-x="940" d="M464 64V338H64V378H464V652H508V378H908V338H508V64H464ZM64 -40V0H900V-40H64Z" />
<glyph unicode="&#xb2;" glyph-name="uni00B2" horiz-adv-x="380" d="M223 270T206 282T167 318Q153 334 143 342T123 350Q108 350 98 346T88 325Q88 318 94 310Q100 301 100 294Q100 271 79 271Q56 271 56 294Q56 339 81 368T153 420L237 465Q279 486 310 521T342
598Q342 633 324 655T266 678Q243 678 222 667T187 638T174 606Q174 591 182 591Q188 591 193 595Q199 599 206 599Q219 599 226 592T234 571Q234 554 222 541T191 528Q169 528 157 543T144 583Q144 614 163 641T213 685T279 702Q337 702 371 672T406 594Q406 543
369 512T269 452L170 405Q136 390 136 377Q136 363 178 350T261 337Q282 337 302 349T332 378L344 403H355Q334 344 310 307T247 270Q223 270 206 282Z" />
<glyph unicode="&#xb3;" glyph-name="uni00B3" horiz-adv-x="380" d="M134 270T105 297T76 368Q76 398 94 414T132 431Q168 431 168 393Q168 379 159 370T133 361Q123 361 117 360T111 351Q111 325 131 310T184 294Q233 294 264 332T296 424Q296 464 284 478T236
492Q223 492 210 483Q197 473 182 473Q172 473 166 479T160 494Q160 502 165 509T182 516H256Q290 516 316 547T342 618Q342 654 326 668T274 682Q242 682 217 668T191 632Q191 622 196 622L205 624L213 626Q238 626 238 600Q238 584 229 573T202 562Q182 562 171
575T160 607Q160 649 196 675T278 702Q332 702 366 679T400 610Q400 564 364 538T290 506L289 502Q320 492 340 474T360 417Q360 375 334 342T267 289T183 270Q134 270 105 297Z" />
<glyph unicode="&#xb4;" glyph-name="acute" horiz-adv-x="350" d="M180 520L286 643Q299 658 310 664T334 670Q349 670 355 662T362 641Q362 615 330 595L192 508L180 520Z" />
<glyph unicode="&#xb5;" glyph-name="uni00B5" horiz-adv-x="572" d="M61 -282T46 -251T30 -182Q30 -43 82 144L166 444H232L178 244Q159 144 159 116Q159 75 169 50T208 24Q249 24 287 73T344 194L412 444H480L388 101Q381 75 381 62Q381 45 387 35T411 24Q457
24 537 176L552 167Q516 94 475 41T383 -12Q352 -12 335 9T317 62Q317 74 320 84L313 86Q254 -12 189 -12Q150 -12 127 21T104 97L97 100L79 15Q75 -4 75 -24Q75 -78 84 -114T111 -185Q128 -221 128 -241Q128 -257 119 -269T92 -282Q61 -282 46 -251Z" />
<glyph unicode="&#xb6;" glyph-name="paragraph" horiz-adv-x="540" d="M295 386Q235 386 200 416T164 499Q164 547 193 597T272 679T384 712H628L618 678H550L324 -156H286L512 678H412L186 -156H148L295 386Z" />
<glyph unicode="&#xb7;" glyph-name="middot" horiz-adv-x="280" d="M167 254T150 271T132 316Q132 343 149 360T194 378Q221 378 238 361T256 316Q256 289 239 272T194 254Q167 254 150 271Z" />
<glyph unicode="&#xb8;" glyph-name="cedilla" horiz-adv-x="380" d="M47 -212T25 -196T2 -148Q2 -130 14 -114T44 -97Q58 -97 65 -105T72 -128Q72 -138 65 -146T48 -154Q44 -154 42 -157T39 -165Q39 -190 78 -190Q106 -190 119 -174T133 -136Q133 -122 130 -111T119
-83Q109 -61 109 -47Q109 -30 118 -13L133 12L152 0L139 -21Q135 -28 135 -36Q135 -52 155 -72Q169 -86 176 -98T183 -126Q183 -162 153 -187T76 -212Q47 -212 25 -196Z" />
<glyph unicode="&#xb9;" glyph-name="uni00B9" horiz-adv-x="380" d="M115 304H170Q179 304 184 307T191 319L271 601Q244 585 197 576L194 597Q231 604 271 628T338 692H360L255 319Q254 317 254 313Q254 304 268 304H323L316 280H108L115 304Z" />
<glyph unicode="&#xba;" glyph-name="ordmasculine" horiz-adv-x="380" d="M182 410T158 437T134 508Q134 549 156 593T217 668T299 698Q340 698 364 670T388 598Q388 557 365 513T304 440T221 410Q182 410 158 437ZM256 428T281 459T321 536T336 621Q336 648
326 664T294 680Q265 680 240 648T201 569T186 484Q186 458 195 443T226 428Q256 428 281 459ZM88 362L95 386H336L329 362H88Z" />
<glyph unicode="&#xbb;" glyph-name="guillemotright" horiz-adv-x="440" d="M142 28L304 228L250 428L267 438Q303 367 331 319T394 228Q337 185 282 137T153 18L142 28ZM72 84L179 228L150 372L167 382Q206 282 246 228Q175 172 83 74L72 84Z" />
<glyph unicode="&#xbc;" glyph-name="onequarter" horiz-adv-x="846" d="M244 -18L218 0L658 702L684 684L244 -18ZM115 304H170Q179 304 184 307T191 319L271 601Q244 585 197 576L194 597Q231 604 271 628T338 692H360L255 319Q254 317 254 313Q254 304 268
304H323L316 280H108L115 304ZM554 24H611Q620 24 625 27T632 40L652 112H492L500 138L630 259Q669 295 695 337T727 416H799Q791 386 777 363T724 306L536 138H659L688 238Q714 254 732 276T761 321H772L724 138H824L816 112H716L697 40L695 31Q695 24 707 24H766L760
0H548L554 24Z" />
<glyph unicode="&#xbd;" glyph-name="onehalf" horiz-adv-x="846" d="M244 -18L218 0L658 702L684 684L244 -18ZM115 304H170Q179 304 184 307T191 319L271 601Q244 585 197 576L194 597Q231 604 271 628T338 692H360L255 319Q254 317 254 313Q254 304 268 304H323L316
280H108L115 304ZM639 -10T622 2T583 38Q569 54 559 62T539 70Q524 70 514 66T504 45Q504 38 510 30Q516 21 516 14Q516 -9 495 -9Q472 -9 472 14Q472 59 497 88T569 140L653 185Q695 206 726 241T758 318Q758 353 740 375T682 398Q659 398 638 387T603 358T590
326Q590 311 598 311Q604 311 609 315Q615 319 622 319Q635 319 642 312T650 291Q650 274 638 261T607 248Q585 248 573 263T560 303Q560 334 579 361T629 405T695 422Q753 422 787 392T822 314Q822 263 785 232T685 172L586 125Q552 110 552 97Q552 83 594 70T677
57Q698 57 718 69T748 98L760 123H771Q750 64 726 27T663 -10Q639 -10 622 2Z" />
<glyph unicode="&#xbe;" glyph-name="threequarters" horiz-adv-x="846" d="M134 270T105 297T76 368Q76 398 94 414T132 431Q168 431 168 393Q168 379 159 370T133 361Q123 361 117 360T111 351Q111 325 131 310T184 294Q233 294 264 332T296 424Q296 464 284
478T236 492Q223 492 210 483Q197 473 182 473Q172 473 166 479T160 494Q160 502 165 509T182 516H256Q290 516 316 547T342 618Q342 654 326 668T274 682Q242 682 217 668T191 632Q191 622 196 622L205 624L213 626Q238 626 238 600Q238 584 229 573T202 562Q182
562 171 575T160 607Q160 649 196 675T278 702Q332 702 366 679T400 610Q400 564 364 538T290 506L289 502Q320 492 340 474T360 417Q360 375 334 342T267 289T183 270Q134 270 105 297ZM244 -18L218 0L658 702L684 684L244 -18ZM554 24H611Q620 24 625 27T632
40L652 112H492L500 138L630 259Q669 295 695 337T727 416H799Q791 386 777 363T724 306L536 138H659L688 238Q714 254 732 276T761 321H772L724 138H824L816 112H716L697 40L695 31Q695 24 707 24H766L760 0H548L554 24Z" />
<glyph unicode="&#xbf;" glyph-name="questiondown" horiz-adv-x="436" d="M287 334T270 351T252 396Q252 423 269 440T314 458Q341 458 358 441T376 396Q376 369 359 352T314 334Q287 334 270 351ZM77 -248T37 -204T-4 -88Q-4 -43 27 -4T106 58L239 122Q272 140
291 163T310 210Q310 236 295 249T258 262Q217 262 198 239T178 184Q178 178 181 169T188 155L176 146Q169 153 164 165T158 192Q158 234 188 263T262 292Q299 292 325 268T352 204Q352 167 330 135T270 82L146 8Q68 -35 68 -98Q68 -151 93 -184T164 -218Q214 -218
245 -204T289 -171T302 -135Q302 -125 298 -121T285 -112Q267 -102 263 -93T258 -65Q258 -52 268 -42T297 -32Q322 -32 336 -48T350 -95Q350 -136 320 -171T244 -227T155 -248Q77 -248 37 -204Z" />
<glyph unicode="&#xc0;" glyph-name="Agrave" horiz-adv-x="728" d="M459 859Q452 866 448 876T444 895Q444 907 451 918T479 930Q509 930 521 893L562 771L547 762L459 859ZM-36 32H1Q42 32 74 53T125 104L536 712H560V75Q562 50 574 41T608 32H664L656 0H360L368
32H430Q451 32 461 41T472 78V244H263L195 144Q161 95 161 66Q161 32 201 32H256L248 0H-44L-36 32ZM285 276H472V552L285 276Z" />
<glyph unicode="&#xc1;" glyph-name="Aacute" horiz-adv-x="728" d="M538 774L644 897Q657 912 668 918T692 924Q720 924 720 895Q720 868 688 849L550 762L538 774ZM-36 32H1Q42 32 74 53T125 104L536 712H560V75Q562 50 574 41T608 32H664L656 0H360L368 32H430Q451
32 461 41T472 78V244H263L195 144Q161 95 161 66Q161 32 201 32H256L248 0H-44L-36 32ZM285 276H472V552L285 276Z" />
<glyph unicode="&#xc2;" glyph-name="Acircumflex" horiz-adv-x="728" d="M396 778Q502 830 572 920H612Q635 830 712 778L698 762Q674 771 637 800T576 858Q537 830 484 801T402 762L396 778ZM-36 32H1Q42 32 74 53T125 104L536 712H560V75Q562 50 574 41T608
32H664L656 0H360L368 32H430Q451 32 461 41T472 78V244H263L195 144Q161 95 161 66Q161 32 201 32H256L248 0H-44L-36 32ZM285 276H472V552L285 276Z" />
<glyph unicode="&#xc3;" glyph-name="Atilde" horiz-adv-x="728" d="M416 810Q419 848 441 875T502 902Q531 902 592 881Q641 864 664 864Q682 864 693 875T708 906L728 904Q725 866 703 839T642 812Q613 812 552 833Q503 850 480 850Q462 850 451 839T436 808L416
810ZM-36 32H1Q42 32 74 53T125 104L536 712H560V75Q562 50 574 41T608 32H664L656 0H360L368 32H430Q451 32 461 41T472 78V244H263L195 144Q161 95 161 66Q161 32 201 32H256L248 0H-44L-36 32ZM285 276H472V552L285 276Z" />
<glyph unicode="&#xc4;" glyph-name="Adieresis" horiz-adv-x="728" d="M454 798T439 813T424 850Q424 873 439 887T476 902Q499 902 513 888T528 850Q528 828 514 813T476 798Q454 798 439 813ZM658 798T643 813T628 850Q628 873 643 887T680 902Q703 902 717
888T732 850Q732 828 718 813T680 798Q658 798 643 813ZM-36 32H1Q42 32 74 53T125 104L536 712H560V75Q562 50 574 41T608 32H664L656 0H360L368 32H430Q451 32 461 41T472 78V244H263L195 144Q161 95 161 66Q161 32 201 32H256L248 0H-44L-36 32ZM285 276H472V552L285
276Z" />
<glyph unicode="&#xc5;" glyph-name="Aring" horiz-adv-x="728" d="M513 754T485 782T456 852Q456 892 484 920T553 948Q594 948 622 920T650 852Q650 811 622 783T553 754Q513 754 485 782ZM584 778T605 799T626 852Q626 883 606 903T553 924Q521 924 501 904T480
852Q480 820 501 799T553 778Q584 778 605 799ZM-36 32H1Q42 32 74 53T125 104L536 712H560V75Q562 50 574 41T608 32H664L656 0H360L368 32H430Q451 32 461 41T472 78V244H263L195 144Q161 95 161 66Q161 32 201 32H256L248 0H-44L-36 32ZM285 276H472V552L285
276Z" />
<glyph unicode="&#xc6;" glyph-name="AE" horiz-adv-x="1010" d="M-36 32H3Q41 32 70 52T124 104L514 591Q519 598 534 615T556 644T563 665Q563 680 540 680H494L502 712H1054L1008 484H983Q984 488 985 500T986 532Q986 616 959 648T878 680H714Q700 680 692
674T680 653L608 384H716Q755 384 779 405T814 456T837 526H862L775 202H750Q760 246 760 277Q760 312 747 332T700 352H599L519 59L517 47Q517 32 538 32H724Q750 32 785 44T848 84Q876 112 899 152T937 226T954 268H978L894 0H310L318 32H393Q421 32 428 59L478
245H281L200 144Q198 141 187 126T168 94T159 61Q159 48 167 40T195 32H243L235 0H-44L-36 32ZM305 277H486L579 620L305 277Z" />
<glyph unicode="&#xc7;" glyph-name="Ccedilla" horiz-adv-x="670" d="M185 -238T162 -218T138 -164Q138 -144 150 -129T181 -114Q196 -114 204 -121T213 -143Q213 -168 189 -176Q181 -180 181 -189Q181 -201 189 -207T221 -214Q251 -214 273 -192T295 -139Q295
-111 281 -88Q263 -59 263 -45Q263 -30 270 -15Q223 -6 183 25T118 114T92 252Q92 367 148 478T292 659T474 730Q511 730 539 716T585 684L603 666Q614 656 619 653T632 649Q647 649 656 661T669 691T677 722H700L636 416H613L614 479Q614 514 605 564T571 647Q533
698 470 698Q411 698 362 662T266 536Q233 474 211 383T188 196Q188 119 207 79T255 27T321 14Q377 14 429 46T520 130T581 242L612 231Q576 125 499 54T304 -18H300L298 -21Q293 -29 293 -38Q293 -47 297 -54T314 -70Q332 -84 342 -97T352 -131Q352 -177 312 -207T217
-238Q185 -238 162 -218Z" />
<glyph unicode="&#xc8;" glyph-name="Egrave" horiz-adv-x="700" d="M387 859Q380 866 376 876T372 895Q372 907 379 918T407 930Q437 930 449 893L490 771L475 762L387 859ZM-2 32H74Q101 32 108 59L269 653Q271 661 271 665Q271 680 250 680H174L182 712H734L688
484H663Q664 488 665 500T666 532Q666 616 639 648T558 680H394Q367 680 360 653L287 384H395Q434 384 458 405T493 456T516 526H541L455 202H430Q440 246 440 277Q440 312 427 332T380 352H279L199 59Q197 51 197 48Q197 32 218 32H404Q430 32 465 44T528 84Q556
112 579 152T617 226T634 268H658L574 0H-10L-2 32Z" />
<glyph unicode="&#xc9;" glyph-name="Eacute" horiz-adv-x="700" d="M466 774L572 897Q585 912 596 918T620 924Q648 924 648 895Q648 868 616 849L478 762L466 774ZM-2 32H74Q101 32 108 59L269 653Q271 661 271 665Q271 680 250 680H174L182 712H734L688 484H663Q664
488 665 500T666 532Q666 616 639 648T558 680H394Q367 680 360 653L287 384H395Q434 384 458 405T493 456T516 526H541L455 202H430Q440 246 440 277Q440 312 427 332T380 352H279L199 59Q197 51 197 48Q197 32 218 32H404Q430 32 465 44T528 84Q556 112 579 152T617
226T634 268H658L574 0H-10L-2 32Z" />
<glyph unicode="&#xca;" glyph-name="Ecircumflex" horiz-adv-x="700" d="M324 778Q430 830 500 920H540Q563 830 640 778L626 762Q602 771 565 800T504 858Q465 830 412 801T330 762L324 778ZM-2 32H74Q101 32 108 59L269 653Q271 661 271 665Q271 680 250 680H174L182
712H734L688 484H663Q664 488 665 500T666 532Q666 616 639 648T558 680H394Q367 680 360 653L287 384H395Q434 384 458 405T493 456T516 526H541L455 202H430Q440 246 440 277Q440 312 427 332T380 352H279L199 59Q197 51 197 48Q197 32 218 32H404Q430 32 465
44T528 84Q556 112 579 152T617 226T634 268H658L574 0H-10L-2 32Z" />
<glyph unicode="&#xcb;" glyph-name="Edieresis" horiz-adv-x="700" d="M382 798T367 813T352 850Q352 873 367 887T404 902Q427 902 441 888T456 850Q456 828 442 813T404 798Q382 798 367 813ZM586 798T571 813T556 850Q556 873 571 887T608 902Q631 902 645
888T660 850Q660 828 646 813T608 798Q586 798 571 813ZM-2 32H74Q101 32 108 59L269 653Q271 661 271 665Q271 680 250 680H174L182 712H734L688 484H663Q664 488 665 500T666 532Q666 616 639 648T558 680H394Q367 680 360 653L287 384H395Q434 384 458 405T493
456T516 526H541L455 202H430Q440 246 440 277Q440 312 427 332T380 352H279L199 59Q197 51 197 48Q197 32 218 32H404Q430 32 465 44T528 84Q556 112 579 152T617 226T634 268H658L574 0H-10L-2 32Z" />
<glyph unicode="&#xcc;" glyph-name="Igrave" horiz-adv-x="400" d="M255 859Q248 866 244 876T240 895Q240 907 247 918T275 930Q305 930 317 893L358 771L343 762L255 859ZM-2 32H74Q101 32 108 59L269 653Q271 661 271 665Q271 680 250 680H174L182 712H478L470
680H394Q367 680 360 653L199 59Q197 51 197 48Q197 32 218 32H294L286 0H-10L-2 32Z" />
<glyph unicode="&#xcd;" glyph-name="Iacute" horiz-adv-x="400" d="M334 774L440 897Q453 912 464 918T488 924Q516 924 516 895Q516 868 484 849L346 762L334 774ZM-2 32H74Q101 32 108 59L269 653Q271 661 271 665Q271 680 250 680H174L182 712H478L470 680H394Q367
680 360 653L199 59Q197 51 197 48Q197 32 218 32H294L286 0H-10L-2 32Z" />
<glyph unicode="&#xce;" glyph-name="Icircumflex" horiz-adv-x="400" d="M192 778Q298 830 368 920H408Q431 830 508 778L494 762Q470 771 433 800T372 858Q333 830 280 801T198 762L192 778ZM-2 32H74Q101 32 108 59L269 653Q271 661 271 665Q271 680 250 680H174L182
712H478L470 680H394Q367 680 360 653L199 59Q197 51 197 48Q197 32 218 32H294L286 0H-10L-2 32Z" />
<glyph unicode="&#xcf;" glyph-name="Idieresis" horiz-adv-x="400" d="M250 798T235 813T220 850Q220 873 235 887T272 902Q295 902 309 888T324 850Q324 828 310 813T272 798Q250 798 235 813ZM454 798T439 813T424 850Q424 873 439 887T476 902Q499 902 513
888T528 850Q528 828 514 813T476 798Q454 798 439 813ZM-2 32H74Q101 32 108 59L269 653Q271 661 271 665Q271 680 250 680H174L182 712H478L470 680H394Q367 680 360 653L199 59Q197 51 197 48Q197 32 218 32H294L286 0H-10L-2 32Z" />
<glyph unicode="&#xd0;" glyph-name="Eth" horiz-adv-x="748" d="M-2 32H74Q101 32 108 59L188 356H76L84 392H198L269 653Q271 661 271 665Q271 680 250 680H174L183 712H504Q574 712 624 679T700 588T726 453Q726 374 697 293T616 148Q562 81 492 41T334 0H-10L-2
32ZM344 32Q474 32 557 180Q590 239 610 323T630 500Q630 580 596 630T482 680H394Q367 680 360 653L289 392H420L412 356H280L199 59Q197 51 197 48Q197 32 218 32H344Z" />
<glyph unicode="&#xd1;" glyph-name="Ntilde" horiz-adv-x="790" d="M412 810Q415 848 437 875T498 902Q527 902 588 881Q637 864 660 864Q678 864 689 875T704 906L724 904Q721 866 699 839T638 812Q609 812 548 833Q499 850 476 850Q458 850 447 839T432 808L412
810ZM312 603H307L176 126Q170 104 170 83Q170 32 220 32H268L260 0H-10L-2 32H46Q78 32 102 59T137 126L280 653Q282 661 282 664Q282 680 261 680H174L182 712H364L573 129L698 586Q705 610 705 629Q705 680 654 680H606L614 712H884L876 680H828Q799 680 774
655T737 586L573 -18H533L312 603Z" />
<glyph unicode="&#xd2;" glyph-name="Ograve" horiz-adv-x="710" d="M403 859Q396 866 392 876T388 895Q388 907 395 918T423 930Q453 930 465 893L506 771L491 762L403 859ZM240 -18T192 18T118 114T92 248Q92 378 148 489T293 665T474 730Q538 730 586 694T660
596T686 462Q686 332 630 222T485 47T304 -18Q240 -18 192 18ZM397 14T454 84T546 248Q573 324 581 396T590 520Q590 607 558 652T466 698Q381 698 324 628T232 464Q205 388 197 316T188 192Q188 105 220 60T312 14Q397 14 454 84Z" />
<glyph unicode="&#xd3;" glyph-name="Oacute" horiz-adv-x="710" d="M482 774L588 897Q601 912 612 918T636 924Q664 924 664 895Q664 868 632 849L494 762L482 774ZM240 -18T192 18T118 114T92 248Q92 378 148 489T293 665T474 730Q538 730 586 694T660 596T686
462Q686 332 630 222T485 47T304 -18Q240 -18 192 18ZM397 14T454 84T546 248Q573 324 581 396T590 520Q590 607 558 652T466 698Q381 698 324 628T232 464Q205 388 197 316T188 192Q188 105 220 60T312 14Q397 14 454 84Z" />
<glyph unicode="&#xd4;" glyph-name="Ocircumflex" horiz-adv-x="710" d="M340 778Q446 830 516 920H556Q579 830 656 778L642 762Q618 771 581 800T520 858Q481 830 428 801T346 762L340 778ZM240 -18T192 18T118 114T92 248Q92 378 148 489T293 665T474 730Q538
730 586 694T660 596T686 462Q686 332 630 222T485 47T304 -18Q240 -18 192 18ZM397 14T454 84T546 248Q573 324 581 396T590 520Q590 607 558 652T466 698Q381 698 324 628T232 464Q205 388 197 316T188 192Q188 105 220 60T312 14Q397 14 454 84Z" />
<glyph unicode="&#xd5;" glyph-name="Otilde" horiz-adv-x="710" d="M366 810Q369 848 391 875T452 902Q481 902 542 881Q591 864 614 864Q632 864 643 875T658 906L678 904Q675 866 653 839T592 812Q563 812 502 833Q453 850 430 850Q412 850 401 839T386 808L366
810ZM240 -18T192 18T118 114T92 248Q92 378 148 489T293 665T474 730Q538 730 586 694T660 596T686 462Q686 332 630 222T485 47T304 -18Q240 -18 192 18ZM397 14T454 84T546 248Q573 324 581 396T590 520Q590 607 558 652T466 698Q381 698 324 628T232 464Q205
388 197 316T188 192Q188 105 220 60T312 14Q397 14 454 84Z" />
<glyph unicode="&#xd6;" glyph-name="Odieresis" horiz-adv-x="710" d="M398 798T383 813T368 850Q368 873 383 887T420 902Q443 902 457 888T472 850Q472 828 458 813T420 798Q398 798 383 813ZM602 798T587 813T572 850Q572 873 587 887T624 902Q647 902 661
888T676 850Q676 828 662 813T624 798Q602 798 587 813ZM240 -18T192 18T118 114T92 248Q92 378 148 489T293 665T474 730Q538 730 586 694T660 596T686 462Q686 332 630 222T485 47T304 -18Q240 -18 192 18ZM397 14T454 84T546 248Q573 324 581 396T590 520Q590
607 558 652T466 698Q381 698 324 628T232 464Q205 388 197 316T188 192Q188 105 220 60T312 14Q397 14 454 84Z" />
<glyph unicode="&#xd7;" glyph-name="multiply" horiz-adv-x="940" d="M196 -50L164 -18L447 264L164 546L196 578L478 295L760 578L792 546L509 264L792 -18L760 -50L478 233L196 -50Z" />
<glyph unicode="&#xd8;" glyph-name="Oslash" horiz-adv-x="710" d="M44 6L127 96Q92 161 92 248Q92 378 148 489T293 665T474 730Q524 730 564 708T633 645L712 730L736 706L652 614Q686 548 686 462Q686 332 630 222T485 47T304 -18Q254 -18 214 4T145 66L68
-18L44 6ZM583 590Q572 644 542 671T466 698Q381 698 324 628T232 464Q205 388 197 316T188 192Q188 172 189 163L583 590ZM397 14T454 84T546 248Q573 324 581 396T590 520Q590 538 589 547L195 120Q207 68 237 41T312 14Q397 14 454 84Z" />
<glyph unicode="&#xd9;" glyph-name="Ugrave" horiz-adv-x="784" d="M453 859Q446 866 442 876T438 895Q438 907 445 918T473 930Q503 930 515 893L556 771L541 762L453 859ZM284 -18T233 8T156 78T130 176Q130 200 139 238L251 653Q253 661 253 664Q253 680 232
680H156L164 712H460L452 680H376Q362 680 354 674T342 653L223 211Q214 173 214 154Q214 88 256 51T369 14Q459 14 513 67T588 198L695 588Q701 612 701 630Q701 651 690 665T650 680H602L610 712H880L872 680H824Q793 680 769 654T733 586L629 208Q600 102 539
42T361 -18Q284 -18 233 8Z" />
<glyph unicode="&#xda;" glyph-name="Uacute" horiz-adv-x="784" d="M532 774L638 897Q651 912 662 918T686 924Q714 924 714 895Q714 868 682 849L544 762L532 774ZM284 -18T233 8T156 78T130 176Q130 200 139 238L251 653Q253 661 253 664Q253 680 232 680H156L164
712H460L452 680H376Q362 680 354 674T342 653L223 211Q214 173 214 154Q214 88 256 51T369 14Q459 14 513 67T588 198L695 588Q701 612 701 630Q701 651 690 665T650 680H602L610 712H880L872 680H824Q793 680 769 654T733 586L629 208Q600 102 539 42T361 -18Q284
-18 233 8Z" />
<glyph unicode="&#xdb;" glyph-name="Ucircumflex" horiz-adv-x="784" d="M390 778Q496 830 566 920H606Q629 830 706 778L692 762Q668 771 631 800T570 858Q531 830 478 801T396 762L390 778ZM284 -18T233 8T156 78T130 176Q130 200 139 238L251 653Q253 661
253 664Q253 680 232 680H156L164 712H460L452 680H376Q362 680 354 674T342 653L223 211Q214 173 214 154Q214 88 256 51T369 14Q459 14 513 67T588 198L695 588Q701 612 701 630Q701 651 690 665T650 680H602L610 712H880L872 680H824Q793 680 769 654T733 586L629
208Q600 102 539 42T361 -18Q284 -18 233 8Z" />
<glyph unicode="&#xdc;" glyph-name="Udieresis" horiz-adv-x="784" d="M448 798T433 813T418 850Q418 873 433 887T470 902Q493 902 507 888T522 850Q522 828 508 813T470 798Q448 798 433 813ZM652 798T637 813T622 850Q622 873 637 887T674 902Q697 902 711
888T726 850Q726 828 712 813T674 798Q652 798 637 813ZM284 -18T233 8T156 78T130 176Q130 200 139 238L251 653Q253 661 253 664Q253 680 232 680H156L164 712H460L452 680H376Q362 680 354 674T342 653L223 211Q214 173 214 154Q214 88 256 51T369 14Q459 14
513 67T588 198L695 588Q701 612 701 630Q701 651 690 665T650 680H602L610 712H880L872 680H824Q793 680 769 654T733 586L629 208Q600 102 539 42T361 -18Q284 -18 233 8Z" />
<glyph unicode="&#xdd;" glyph-name="Yacute" horiz-adv-x="720" d="M478 774L584 897Q597 912 608 918T632 924Q660 924 660 895Q660 868 628 849L490 762L478 774ZM114 32H214Q240 32 247 58L317 318L238 636Q230 661 219 670T188 680H114L122 712H438L430 680H371Q351
680 339 670T327 645Q327 637 329 633L395 355L567 553Q590 580 603 600T617 641Q617 680 569 680H526L534 712H830L822 680H775Q718 680 656 607L411 329L338 58Q336 50 336 46Q336 32 356 32H456L448 0H106L114 32Z" />
<glyph unicode="&#xde;" glyph-name="Thorn" horiz-adv-x="678" d="M-2 32H74Q101 32 108 59L269 653Q271 661 271 665Q271 680 250 680H174L183 712H514L506 680H394Q379 680 372 674T360 653L340 578H488Q561 583 607 540T654 420Q654 360 618 309T514 226T358
194H236L199 59L197 47Q197 32 218 32H330L322 0H-10L-2 32ZM379 226Q418 226 454 245T516 298Q536 326 547 363T558 438Q558 493 532 519T466 546H358Q331 546 324 519L245 226H379Z" />
<glyph unicode="&#xdf;" glyph-name="germandbls" horiz-adv-x="480" d="M163 525Q181 592 218 635T298 699T382 720Q449 720 477 689T506 611Q506 566 481 528T416 465T331 434L330 430Q353 427 377 405T417 343T434 254Q434 211 417 158T366 64Q307 -12 218
-12Q183 -12 160 10T137 66Q137 93 152 118T202 144Q220 144 229 133T239 108Q239 92 231 83T199 66Q181 61 181 43Q181 29 193 21T226 12Q263 12 294 50T344 148T362 270Q362 338 345 378T288 418H250L258 446H296Q338 446 371 470T423 531T442 607Q442 652 426
674T374 696Q338 696 299 663T238 553L32 -205H-34L163 525Z" />
<glyph unicode="&#xe0;" glyph-name="agrave" horiz-adv-x="536" d="M244 605Q230 621 230 640Q230 652 238 664T266 676Q281 676 290 667T306 637L346 518L329 508L244 605ZM101 -12T72 25T42 125Q42 186 60 242T101 335Q136 390 182 423T277 456Q308 456 333
435T369 368L373 366L395 444H461L376 129Q362 73 362 49Q362 35 366 29T380 22Q407 22 436 66T489 182L509 176Q483 99 446 44T362 -12Q304 -12 304 90Q304 103 304 109T305 117L302 119Q281 74 241 31T154 -12Q101 -12 72 25ZM197 12T231 49T294 150Q314 195
329 250T344 340Q344 384 326 408T277 432Q246 432 218 398T170 320Q145 264 130 201T114 85Q114 55 124 34T160 12Q197 12 231 49Z" />
<glyph unicode="&#xe1;" glyph-name="aacute" horiz-adv-x="536" d="M308 520L414 643Q427 658 438 664T462 670Q477 670 483 662T490 641Q490 615 458 595L320 508L308 520ZM101 -12T72 25T42 125Q42 186 60 242T101 335Q136 390 182 423T277 456Q308 456 333
435T369 368L373 366L395 444H461L376 129Q362 73 362 49Q362 35 366 29T380 22Q407 22 436 66T489 182L509 176Q483 99 446 44T362 -12Q304 -12 304 90Q304 103 304 109T305 117L302 119Q281 74 241 31T154 -12Q101 -12 72 25ZM197 12T231 49T294 150Q314 195
329 250T344 340Q344 384 326 408T277 432Q246 432 218 398T170 320Q145 264 130 201T114 85Q114 55 124 34T160 12Q197 12 231 49Z" />
<glyph unicode="&#xe2;" glyph-name="acircumflex" horiz-adv-x="536" d="M194 521Q283 568 346 672H386Q395 568 456 521L444 508Q384 544 347 600Q277 543 200 508L194 521ZM101 -12T72 25T42 125Q42 186 60 242T101 335Q136 390 182 423T277 456Q308 456 333
435T369 368L373 366L395 444H461L376 129Q362 73 362 49Q362 35 366 29T380 22Q407 22 436 66T489 182L509 176Q483 99 446 44T362 -12Q304 -12 304 90Q304 103 304 109T305 117L302 119Q281 74 241 31T154 -12Q101 -12 72 25ZM197 12T231 49T294 150Q314 195
329 250T344 340Q344 384 326 408T277 432Q246 432 218 398T170 320Q145 264 130 201T114 85Q114 55 124 34T160 12Q197 12 231 49Z" />
<glyph unicode="&#xe3;" glyph-name="atilde" horiz-adv-x="536" d="M214 595T235 622T294 650Q316 650 332 645T371 628Q391 619 403 615T432 610Q449 610 457 620T468 650H490Q490 611 469 584T410 556Q388 556 372 561T333 578Q313 587 301 591T272 596Q255
596 247 586T236 556H214Q214 595 235 622ZM101 -12T72 25T42 125Q42 186 60 242T101 335Q136 390 182 423T277 456Q308 456 333 435T369 368L373 366L395 444H461L376 129Q362 73 362 49Q362 35 366 29T380 22Q407 22 436 66T489 182L509 176Q483 99 446 44T362
-12Q304 -12 304 90Q304 103 304 109T305 117L302 119Q281 74 241 31T154 -12Q101 -12 72 25ZM197 12T231 49T294 150Q314 195 329 250T344 340Q344 384 326 408T277 432Q246 432 218 398T170 320Q145 264 130 201T114 85Q114 55 124 34T160 12Q197 12 231 49Z"
/>
<glyph unicode="&#xe4;" glyph-name="adieresis" horiz-adv-x="536" d="M235 548T221 562T206 596Q206 616 220 630T254 644Q274 644 288 630T302 596Q302 577 288 563T254 548Q235 548 221 562ZM423 548T409 562T394 596Q394 616 408 630T442 644Q462 644 476
630T490 596Q490 577 476 563T442 548Q423 548 409 562ZM101 -12T72 25T42 125Q42 186 60 242T101 335Q136 390 182 423T277 456Q308 456 333 435T369 368L373 366L395 444H461L376 129Q362 73 362 49Q362 35 366 29T380 22Q407 22 436 66T489 182L509 176Q483
99 446 44T362 -12Q304 -12 304 90Q304 103 304 109T305 117L302 119Q281 74 241 31T154 -12Q101 -12 72 25ZM197 12T231 49T294 150Q314 195 329 250T344 340Q344 384 326 408T277 432Q246 432 218 398T170 320Q145 264 130 201T114 85Q114 55 124 34T160 12Q197
12 231 49Z" />
<glyph unicode="&#xe5;" glyph-name="aring" horiz-adv-x="536" d="M307 500T279 528T250 598Q250 638 278 666T347 694Q388 694 416 666T444 598Q444 557 416 529T347 500Q307 500 279 528ZM378 524T399 545T420 598Q420 629 400 649T347 670Q315 670 295 650T274
598Q274 566 295 545T347 524Q378 524 399 545ZM101 -12T72 25T42 125Q42 186 60 242T101 335Q136 390 182 423T277 456Q308 456 333 435T369 368L373 366L395 444H461L376 129Q362 73 362 49Q362 35 366 29T380 22Q407 22 436 66T489 182L509 176Q483 99 446 44T362
-12Q304 -12 304 90Q304 103 304 109T305 117L302 119Q281 74 241 31T154 -12Q101 -12 72 25ZM197 12T231 49T294 150Q314 195 329 250T344 340Q344 384 326 408T277 432Q246 432 218 398T170 320Q145 264 130 201T114 85Q114 55 124 34T160 12Q197 12 231 49Z"
/>
<glyph unicode="&#xe6;" glyph-name="ae" horiz-adv-x="684" d="M101 -12T72 25T42 125Q42 186 60 242T101 335Q136 390 182 423T277 456Q308 456 333 435T369 368L373 366L395 444H461L439 366L446 368Q508 456 575 456Q611 456 633 434T656 375Q656 333 629
301T556 248Q498 222 402 215Q379 149 379 101Q379 12 457 12Q497 12 530 40T585 102T613 155L634 148Q619 105 590 69T524 10T452 -12Q322 -12 305 117L302 119Q281 74 241 31T154 -12Q101 -12 72 25ZM197 12T231 49T294 150Q314 195 329 250T344 340Q344 384
326 408T277 432Q246 432 218 398T170 320Q145 264 130 201T114 85Q114 55 124 34T160 12Q197 12 231 49ZM495 246T537 265Q568 279 588 309T608 379Q608 432 564 432Q524 432 492 395T436 310Q429 295 419 271T408 240Q495 246 537 265Z" />
<glyph unicode="&#xe7;" glyph-name="ccedilla" horiz-adv-x="424" d="M86 -212T64 -196T41 -148Q41 -130 53 -114T83 -97Q97 -97 104 -105T111 -128Q111 -138 104 -146T87 -154Q83 -154 81 -157T78 -165Q78 -190 117 -190Q145 -190 158 -174T172 -136Q172 -122
169 -111T158 -83Q148 -61 148 -47Q148 -30 157 -13L159 -9Q110 2 81 49T52 158Q52 218 74 276T140 381Q175 418 210 437T290 456Q328 456 357 432T386 356Q386 326 370 306T329 286Q310 286 300 297T290 324Q290 353 322 376Q333 385 333 402Q333 411 322 421T286
432Q208 432 150 258Q139 225 132 176T124 98Q124 54 143 33T191 12Q253 12 292 62T347 155L368 148Q344 80 295 34T186 -12H184L178 -21Q174 -28 174 -36Q174 -52 194 -72Q208 -86 215 -98T222 -126Q222 -162 192 -187T115 -212Q86 -212 64 -196Z" />
<glyph unicode="&#xe8;" glyph-name="egrave" horiz-adv-x="410" d="M234 605Q220 621 220 640Q220 652 228 664T256 676Q271 676 280 667T296 637L336 518L319 508L234 605ZM126 -12T89 37T52 158Q52 218 74 276T140 381Q212 456 290 456Q330 456 355 437T381
372Q381 294 280 247Q246 231 212 225T138 215Q133 194 129 161T124 98Q124 54 143 33T191 12Q253 12 292 62T347 155L368 148Q344 80 295 34T186 -12Q126 -12 89 37ZM217 245T261 265Q293 279 313 309T333 378Q333 407 321 419T291 432Q250 432 215 395T164 313Q159
297 153 275T144 240Q217 245 261 265Z" />
<glyph unicode="&#xe9;" glyph-name="eacute" horiz-adv-x="410" d="M298 520L404 643Q417 658 428 664T452 670Q467 670 473 662T480 641Q480 615 448 595L310 508L298 520ZM126 -12T89 37T52 158Q52 218 74 276T140 381Q212 456 290 456Q330 456 355 437T381
372Q381 294 280 247Q246 231 212 225T138 215Q133 194 129 161T124 98Q124 54 143 33T191 12Q253 12 292 62T347 155L368 148Q344 80 295 34T186 -12Q126 -12 89 37ZM217 245T261 265Q293 279 313 309T333 378Q333 407 321 419T291 432Q250 432 215 395T164 313Q159
297 153 275T144 240Q217 245 261 265Z" />
<glyph unicode="&#xea;" glyph-name="ecircumflex" horiz-adv-x="410" d="M184 521Q273 568 336 672H376Q385 568 446 521L434 508Q374 544 337 600Q267 543 190 508L184 521ZM126 -12T89 37T52 158Q52 218 74 276T140 381Q212 456 290 456Q330 456 355 437T381
372Q381 294 280 247Q246 231 212 225T138 215Q133 194 129 161T124 98Q124 54 143 33T191 12Q253 12 292 62T347 155L368 148Q344 80 295 34T186 -12Q126 -12 89 37ZM217 245T261 265Q293 279 313 309T333 378Q333 407 321 419T291 432Q250 432 215 395T164 313Q159
297 153 275T144 240Q217 245 261 265Z" />
<glyph unicode="&#xeb;" glyph-name="edieresis" horiz-adv-x="410" d="M225 548T211 562T196 596Q196 616 210 630T244 644Q264 644 278 630T292 596Q292 577 278 563T244 548Q225 548 211 562ZM413 548T399 562T384 596Q384 616 398 630T432 644Q452 644 466
630T480 596Q480 577 466 563T432 548Q413 548 399 562ZM126 -12T89 37T52 158Q52 218 74 276T140 381Q212 456 290 456Q330 456 355 437T381 372Q381 294 280 247Q246 231 212 225T138 215Q133 194 129 161T124 98Q124 54 143 33T191 12Q253 12 292 62T347 155L368
148Q344 80 295 34T186 -12Q126 -12 89 37ZM217 245T261 265Q293 279 313 309T333 378Q333 407 321 419T291 432Q250 432 215 395T164 313Q159 297 153 275T144 240Q217 245 261 265Z" />
<glyph unicode="&#xec;" glyph-name="igrave" horiz-adv-x="334" d="M146 605Q132 621 132 640Q132 652 140 664T168 676Q183 676 192 667T208 637L248 518L231 508L146 605ZM134 -12T116 12T97 84Q97 106 103 136T117 186L181 335Q186 346 191 364T197 394Q197
408 192 417T175 426Q141 426 110 374T56 262L36 268Q63 348 102 402T186 456Q212 456 230 431T249 360Q249 338 243 307T229 258L165 109Q160 98 155 80T149 50Q149 36 155 27T172 18Q206 18 237 70T290 182L310 176Q283 95 245 42T161 -12Q134 -12 116 12Z" />
<glyph unicode="&#xed;" glyph-name="iacute" horiz-adv-x="334" d="M210 520L316 643Q329 658 340 664T364 670Q379 670 385 662T392 641Q392 615 360 595L222 508L210 520ZM134 -12T116 12T97 84Q97 106 103 136T117 186L181 335Q186 346 191 364T197 394Q197
408 192 417T175 426Q141 426 110 374T56 262L36 268Q63 348 102 402T186 456Q212 456 230 431T249 360Q249 338 243 307T229 258L165 109Q160 98 155 80T149 50Q149 36 155 27T172 18Q206 18 237 70T290 182L310 176Q283 95 245 42T161 -12Q134 -12 116 12Z" />
<glyph unicode="&#xee;" glyph-name="icircumflex" horiz-adv-x="334" d="M96 521Q185 568 248 672H288Q297 568 358 521L346 508Q286 544 249 600Q179 543 102 508L96 521ZM134 -12T116 12T97 84Q97 106 103 136T117 186L181 335Q186 346 191 364T197 394Q197
408 192 417T175 426Q141 426 110 374T56 262L36 268Q63 348 102 402T186 456Q212 456 230 431T249 360Q249 338 243 307T229 258L165 109Q160 98 155 80T149 50Q149 36 155 27T172 18Q206 18 237 70T290 182L310 176Q283 95 245 42T161 -12Q134 -12 116 12Z" />
<glyph unicode="&#xef;" glyph-name="idieresis" horiz-adv-x="334" d="M149 548T135 562T120 596Q120 616 134 630T168 644Q188 644 202 630T216 596Q216 577 202 563T168 548Q149 548 135 562ZM313 548T299 562T284 596Q284 616 298 630T332 644Q352 644 366
630T380 596Q380 577 366 563T332 548Q313 548 299 562ZM134 -12T116 12T97 84Q97 106 103 136T117 186L181 335Q186 346 191 364T197 394Q197 408 192 417T175 426Q141 426 110 374T56 262L36 268Q63 348 102 402T186 456Q212 456 230 431T249 360Q249 338 243
307T229 258L165 109Q160 98 155 80T149 50Q149 36 155 27T172 18Q206 18 237 70T290 182L310 176Q283 95 245 42T161 -12Q134 -12 116 12Z" />
<glyph unicode="&#xf0;" glyph-name="eth" horiz-adv-x="494" d="M152 -12T122 7T72 67T52 164Q52 234 85 302T175 413T294 456Q317 456 337 447T371 424L380 428Q380 480 359 536L350 559L226 513L216 540L337 584Q313 637 265 702H354Q386 655 405 609L526 653L536
626L416 582L423 564Q435 531 443 482T452 397Q452 345 438 284T406 180Q369 95 311 42T186 -12Q152 -12 122 7ZM230 12T257 44T307 130Q328 179 341 236T354 340Q354 381 338 406T290 432Q250 432 222 400T171 314Q150 265 137 208T124 104Q124 63 141 38T190
12Q230 12 257 44Z" />
<glyph unicode="&#xf1;" glyph-name="ntilde" horiz-adv-x="572" d="M242 595T263 622T322 650Q344 650 360 645T399 628Q419 619 431 615T460 610Q477 610 485 620T496 650H518Q518 611 497 584T438 556Q416 556 400 561T361 578Q341 587 329 591T300 596Q283
596 275 586T264 556H242Q242 595 263 622ZM372 -12T354 12T335 84Q335 106 341 136T355 186L419 335Q424 346 429 364T435 394Q435 408 430 417T413 426Q353 426 286 313Q246 245 215 178T170 66L150 0H84L168 310Q183 370 183 395Q183 409 179 415T164 422Q136
422 108 376T56 262L36 268Q102 456 183 456Q241 456 241 354Q241 334 232 293T215 233L218 230L232 255Q276 340 321 398T422 456Q452 456 469 432T487 360Q487 338 481 307T467 258L403 109Q398 98 393 80T387 50Q387 36 393 27T410 18Q444 18 475 70T528 182L548
176Q521 95 483 42T399 -12Q372 -12 354 12Z" />
<glyph unicode="&#xf2;" glyph-name="ograve" horiz-adv-x="462" d="M236 605Q222 621 222 640Q222 652 230 664T258 676Q273 676 282 667T298 637L338 518L321 508L236 605ZM152 -12T122 7T72 67T52 164Q52 234 85 302T175 413T294 456Q328 456 358 437T407 377T426
280Q426 210 393 142T305 31T186 -12Q152 -12 122 7ZM230 12T257 44T307 130Q328 179 341 236T354 340Q354 381 338 406T290 432Q250 432 222 400T171 314Q150 265 137 208T124 104Q124 63 141 38T190 12Q230 12 257 44Z" />
<glyph unicode="&#xf3;" glyph-name="oacute" horiz-adv-x="462" d="M300 520L406 643Q419 658 430 664T454 670Q469 670 475 662T482 641Q482 615 450 595L312 508L300 520ZM152 -12T122 7T72 67T52 164Q52 234 85 302T175 413T294 456Q328 456 358 437T407 377T426
280Q426 210 393 142T305 31T186 -12Q152 -12 122 7ZM230 12T257 44T307 130Q328 179 341 236T354 340Q354 381 338 406T290 432Q250 432 222 400T171 314Q150 265 137 208T124 104Q124 63 141 38T190 12Q230 12 257 44Z" />
<glyph unicode="&#xf4;" glyph-name="ocircumflex" horiz-adv-x="462" d="M186 521Q275 568 338 672H378Q387 568 448 521L436 508Q376 544 339 600Q269 543 192 508L186 521ZM152 -12T122 7T72 67T52 164Q52 234 85 302T175 413T294 456Q328 456 358 437T407
377T426 280Q426 210 393 142T305 31T186 -12Q152 -12 122 7ZM230 12T257 44T307 130Q328 179 341 236T354 340Q354 381 338 406T290 432Q250 432 222 400T171 314Q150 265 137 208T124 104Q124 63 141 38T190 12Q230 12 257 44Z" />
<glyph unicode="&#xf5;" glyph-name="otilde" horiz-adv-x="462" d="M206 595T227 622T286 650Q308 650 324 645T363 628Q383 619 395 615T424 610Q441 610 449 620T460 650H482Q482 611 461 584T402 556Q380 556 364 561T325 578Q305 587 293 591T264 596Q247
596 239 586T228 556H206Q206 595 227 622ZM152 -12T122 7T72 67T52 164Q52 234 85 302T175 413T294 456Q328 456 358 437T407 377T426 280Q426 210 393 142T305 31T186 -12Q152 -12 122 7ZM230 12T257 44T307 130Q328 179 341 236T354 340Q354 381 338 406T290
432Q250 432 222 400T171 314Q150 265 137 208T124 104Q124 63 141 38T190 12Q230 12 257 44Z" />
<glyph unicode="&#xf6;" glyph-name="odieresis" horiz-adv-x="462" d="M227 548T213 562T198 596Q198 616 212 630T246 644Q266 644 280 630T294 596Q294 577 280 563T246 548Q227 548 213 562ZM415 548T401 562T386 596Q386 616 400 630T434 644Q454 644 468
630T482 596Q482 577 468 563T434 548Q415 548 401 562ZM152 -12T122 7T72 67T52 164Q52 234 85 302T175 413T294 456Q328 456 358 437T407 377T426 280Q426 210 393 142T305 31T186 -12Q152 -12 122 7ZM230 12T257 44T307 130Q328 179 341 236T354 340Q354 381
338 406T290 432Q250 432 222 400T171 314Q150 265 137 208T124 104Q124 63 141 38T190 12Q230 12 257 44Z" />
<glyph unicode="&#xf7;" glyph-name="divide" horiz-adv-x="940" d="M451 456T434 473T416 518Q416 545 433 562T478 580Q505 580 522 563T540 518Q540 491 523 474T478 456Q451 456 434 473ZM56 244V284H900V244H56ZM451 -56T434 -39T416 6Q416 33 433 50T478
68Q505 68 522 51T540 6Q540 -21 523 -38T478 -56Q451 -56 434 -39Z" />
<glyph unicode="&#xf8;" glyph-name="oslash" horiz-adv-x="462" d="M24 4L75 60Q52 104 52 164Q52 234 85 302T175 413T294 456Q321 456 347 443T392 403L440 456L458 438L405 381Q426 337 426 280Q426 210 393 142T305 31T186 -12Q159 -12 134 1T89 39L42 -12L24
4ZM353 361Q349 394 333 413T290 432Q250 432 222 400T171 314Q151 269 138 214T124 113L353 361ZM230 12T257 44T307 130Q326 174 339 227T354 325L126 79Q131 48 147 30T190 12Q230 12 257 44Z" />
<glyph unicode="&#xf9;" glyph-name="ugrave" horiz-adv-x="572" d="M270 605Q256 621 256 640Q256 652 264 664T292 676Q307 676 316 667T332 637L372 518L355 508L270 605ZM132 -12T115 12T97 84Q97 106 103 137T117 186L181 335Q186 346 191 364T197 394Q197
408 191 417T174 426Q140 426 109 374T56 262L36 268Q63 349 101 402T185 456Q212 456 230 432T249 360Q249 338 243 308T229 258L165 109Q160 98 155 80T149 50Q149 36 154 27T171 18Q231 18 298 131Q338 199 369 266T414 378L434 444H500L416 134Q401 74 401
49Q401 35 405 29T420 22Q448 22 476 68T528 182L548 176Q482 -12 401 -12Q343 -12 343 90Q343 110 352 151T369 211L366 214L352 189Q308 104 263 46T162 -12Q132 -12 115 12Z" />
<glyph unicode="&#xfa;" glyph-name="uacute" horiz-adv-x="572" d="M334 520L440 643Q453 658 464 664T488 670Q503 670 509 662T516 641Q516 615 484 595L346 508L334 520ZM132 -12T115 12T97 84Q97 106 103 137T117 186L181 335Q186 346 191 364T197 394Q197
408 191 417T174 426Q140 426 109 374T56 262L36 268Q63 349 101 402T185 456Q212 456 230 432T249 360Q249 338 243 308T229 258L165 109Q160 98 155 80T149 50Q149 36 154 27T171 18Q231 18 298 131Q338 199 369 266T414 378L434 444H500L416 134Q401 74 401
49Q401 35 405 29T420 22Q448 22 476 68T528 182L548 176Q482 -12 401 -12Q343 -12 343 90Q343 110 352 151T369 211L366 214L352 189Q308 104 263 46T162 -12Q132 -12 115 12Z" />
<glyph unicode="&#xfb;" glyph-name="ucircumflex" horiz-adv-x="572" d="M220 521Q309 568 372 672H412Q421 568 482 521L470 508Q410 544 373 600Q303 543 226 508L220 521ZM132 -12T115 12T97 84Q97 106 103 137T117 186L181 335Q186 346 191 364T197 394Q197
408 191 417T174 426Q140 426 109 374T56 262L36 268Q63 349 101 402T185 456Q212 456 230 432T249 360Q249 338 243 308T229 258L165 109Q160 98 155 80T149 50Q149 36 154 27T171 18Q231 18 298 131Q338 199 369 266T414 378L434 444H500L416 134Q401 74 401
49Q401 35 405 29T420 22Q448 22 476 68T528 182L548 176Q482 -12 401 -12Q343 -12 343 90Q343 110 352 151T369 211L366 214L352 189Q308 104 263 46T162 -12Q132 -12 115 12Z" />
<glyph unicode="&#xfc;" glyph-name="udieresis" horiz-adv-x="572" d="M261 548T247 562T232 596Q232 616 246 630T280 644Q300 644 314 630T328 596Q328 577 314 563T280 548Q261 548 247 562ZM449 548T435 562T420 596Q420 616 434 630T468 644Q488 644 502
630T516 596Q516 577 502 563T468 548Q449 548 435 562ZM132 -12T115 12T97 84Q97 106 103 137T117 186L181 335Q186 346 191 364T197 394Q197 408 191 417T174 426Q140 426 109 374T56 262L36 268Q63 349 101 402T185 456Q212 456 230 432T249 360Q249 338 243
308T229 258L165 109Q160 98 155 80T149 50Q149 36 154 27T171 18Q231 18 298 131Q338 199 369 266T414 378L434 444H500L416 134Q401 74 401 49Q401 35 405 29T420 22Q448 22 476 68T528 182L548 176Q482 -12 401 -12Q343 -12 343 90Q343 110 352 151T369 211L366
214L352 189Q308 104 263 46T162 -12Q132 -12 115 12Z" />
<glyph unicode="&#xfd;" glyph-name="yacute" horiz-adv-x="512" d="M330 520L436 643Q449 658 460 664T484 670Q499 670 505 662T512 641Q512 615 480 595L342 508L330 520ZM90 -248T57 -222T24 -150Q24 -122 40 -106T78 -90Q97 -90 107 -102T118 -130Q118 -155
99 -170Q94 -175 92 -179T90 -192Q90 -224 133 -224Q168 -224 193 -213T243 -170Q268 -139 282 -101T309 -16L352 145L346 147Q314 82 266 35T174 -12Q141 -12 119 13T97 84Q97 106 103 137T117 186L181 335Q186 346 191 364T197 394Q197 408 191 417T174 426Q140
426 109 374T56 262L36 268Q63 349 101 402T185 456Q212 456 230 432T249 360Q249 338 243 308T229 258L165 109Q160 98 155 80T149 50Q149 12 184 12Q221 12 265 62T346 186T402 324L435 444H501L383 0Q371 -43 346 -95T283 -186Q251 -219 214 -233T144 -248Q90
-248 57 -222Z" />
<glyph unicode="&#xfe;" glyph-name="thorn" horiz-adv-x="540" d="M-67 -204H7Q19 -204 25 -199T34 -182L263 666Q265 674 265 676Q265 688 247 688H159L166 712H343L238 327L242 325Q263 370 303 413T390 456Q443 456 472 419T502 319Q502 258 484 202T443 109Q408
54 362 21T267 -12Q236 -12 211 9T175 76L171 78L102 -182L100 -192Q100 -199 104 -201T117 -204H239L231 -232H-75L-67 -204ZM298 12T326 46T374 124Q399 180 414 243T430 359Q430 389 420 410T384 432Q347 432 313 395T250 294Q230 249 215 194T200 104Q200 60
218 36T267 12Q298 12 326 46Z" />
<glyph unicode="&#xff;" glyph-name="ydieresis" horiz-adv-x="512" d="M257 548T243 562T228 596Q228 616 242 630T276 644Q296 644 310 630T324 596Q324 577 310 563T276 548Q257 548 243 562ZM445 548T431 562T416 596Q416 616 430 630T464 644Q484 644 498
630T512 596Q512 577 498 563T464 548Q445 548 431 562ZM90 -248T57 -222T24 -150Q24 -122 40 -106T78 -90Q97 -90 107 -102T118 -130Q118 -155 99 -170Q94 -175 92 -179T90 -192Q90 -224 133 -224Q168 -224 193 -213T243 -170Q268 -139 282 -101T309 -16L352 145L346
147Q314 82 266 35T174 -12Q141 -12 119 13T97 84Q97 106 103 137T117 186L181 335Q186 346 191 364T197 394Q197 408 191 417T174 426Q140 426 109 374T56 262L36 268Q63 349 101 402T185 456Q212 456 230 432T249 360Q249 338 243 308T229 258L165 109Q160 98
155 80T149 50Q149 12 184 12Q221 12 265 62T346 186T402 324L435 444H501L383 0Q371 -43 346 -95T283 -186Q251 -219 214 -233T144 -248Q90 -248 57 -222Z" />
<glyph unicode="&#x2013;" glyph-name="endash" horiz-adv-x="620" d="M84 244V280H584V244H84Z" />
<glyph unicode="&#x2014;" glyph-name="emdash" horiz-adv-x="1000" d="M92 234V270H972V234H92Z" />
<glyph unicode="&#x2018;" glyph-name="quoteleft" horiz-adv-x="280" d="M182 422T165 448T148 503Q148 598 199 653T304 730L312 714Q263 689 226 652T189 567Q189 552 198 544Q206 537 227 537Q248 537 261 521T274 485Q274 456 257 439T213 422Q182 422 165 448Z" />
<glyph unicode="&#x2019;" glyph-name="quoteright" horiz-adv-x="280" d="M144 438Q193 463 230 500T267 585Q267 600 258 608Q250 615 229 615Q208 615 195 631T182 667Q182 696 199 713T243 730Q274 730 291 704T308 649Q308 554 257 499T152 422L144 438Z" />
<glyph unicode="&#x201a;" glyph-name="quotesinglbase" horiz-adv-x="280" d="M22 -152Q71 -127 108 -90T145 -5Q145 10 136 18Q128 25 107 25Q86 25 73 41T60 77Q60 106 77 123T121 140Q152 140 169 114T186 59Q186 -36 135 -91T30 -168L22 -152Z" />
<glyph unicode="&#x201c;" glyph-name="quotedblleft" horiz-adv-x="440" d="M182 422T165 448T148 503Q148 598 199 653T304 730L312 714Q263 689 226 652T189 567Q189 552 198 544Q206 537 227 537Q248 537 261 521T274 485Q274 456 257 439T213 422Q182 422
165 448ZM342 422T325 448T308 503Q308 598 359 653T464 730L472 714Q423 689 386 652T349 567Q349 552 358 544Q366 537 387 537Q408 537 421 521T434 485Q434 456 417 439T373 422Q342 422 325 448Z" />
<glyph unicode="&#x201d;" glyph-name="quotedblright" horiz-adv-x="440" d="M144 438Q193 463 230 500T267 585Q267 600 258 608Q250 615 229 615Q208 615 195 631T182 667Q182 696 199 713T243 730Q274 730 291 704T308 649Q308 554 257 499T152 422L144 438ZM304
438Q353 463 390 500T427 585Q427 600 418 608Q410 615 389 615Q368 615 355 631T342 667Q342 696 359 713T403 730Q434 730 451 704T468 649Q468 554 417 499T312 422L304 438Z" />
<glyph unicode="&#x201e;" glyph-name="quotedblbase" horiz-adv-x="440" d="M22 -152Q71 -127 108 -90T145 -5Q145 10 136 18Q128 25 107 25Q86 25 73 41T60 77Q60 106 77 123T121 140Q152 140 169 114T186 59Q186 -36 135 -91T30 -168L22 -152ZM174 -152Q223
-127 260 -90T297 -5Q297 10 288 18Q280 25 259 25Q238 25 225 41T212 77Q212 106 229 123T273 140Q304 140 321 114T338 59Q338 -36 287 -91T182 -168L174 -152Z" />
<glyph unicode="&#x2022;" glyph-name="bullet" horiz-adv-x="500" d="M242 240T209 273T176 354Q176 402 209 435T290 468Q338 468 371 435T404 354Q404 306 371 273T290 240Q242 240 209 273Z" />
<glyph unicode="&#x2039;" glyph-name="guilsinglleft" horiz-adv-x="330" d="M162 53Q127 118 105 155T54 228Q101 263 144 301T257 403L295 438L306 428L144 228L198 28L181 18L162 53Z" />
<glyph unicode="&#x203a;" glyph-name="guilsinglright" horiz-adv-x="330" d="M32 28L194 228L140 428L157 438L176 403Q211 338 233 301T284 228Q237 193 194 155T81 53L43 18L32 28Z" />
</font>
</defs>
</svg>
